当前位置: 首页 >> 日韩电影 >> 太阳与波莱罗[简繁字幕].Sun.and.Bolero.2022.BluRay.x265.10bit-CTRLHD 5.46GB >> 正文

太阳与波莱罗[简繁字幕].Sun.and.Bolero.2022.BluRay.x265.10bit-CTRLHD 5.46GB

2022年11月05日 22:32:03     电影发布:来源于网络     电影分类:日韩电影     评论(0)    

◎标 题 太阳与波莱罗

◎译 名 太阳与波丽露(台)

◎片 名 太陽とボレロ

◎年 代 2022

◎产 地 日本

◎类 别 剧情 / 音乐

◎语 言 日语

◎上映日期 2022-06-03(日本)

◎IMDb链接 https://www.imdb.com/title//

◎豆瓣链接 https://movie.douban.com/subject/35437647/

◎导 演 水谷丰 Yutaka Mizutani

◎编 剧 水谷丰 Yutaka Mizutani

◎演 员 檀丽 Rei Dan

石丸干二 Kanji Ishimaru

町田启太 Keita Machida

森玛莉亚 Maria Mori

田口浩正 Hiromasa Taguchi

田中要次 Yôji Tanaka

藤吉久美子 Kumiko Fujiyoshi

六平直政 Naomasa Musaka

山中崇史 Takashi Yamanaka

河相我闻 Gamon Kawai

原田龙二 Ryuuji Harada

永冈佑 Tasuku Nagaoka

梅舟惟永 Ariei Umefune

水谷丰 Yutaka Mizutani

◎简 介

讲述一个非职业爱好者组成的地方交响乐团追逐梦想的故事

  1. ##### MediaInfo ######

  2. General

  3. Unique ID : 278137118796070365896037387846078737235 (0xD13F42B4F1CBB66A57E9F0037290AB53)

  4. Complete name : Sun.and.Bolero.2022.BluRay.x265.10bit-CTRLHD.mkv

  5. Format : Matroska

  6. Format version : Version 4

  7. File size : 5.46 GiB

  8. Duration : 2 h 13 min

  9. Overall bit rate : 5 865 kb/s

  10. Movie name : Sun and Bolero

  11. Encoded date : UTC 2022-11-04 12:45:05

  12. Writing application : mkvmerge v71.1.0 ('Fortitude') 64-bit

  13. Writing library : libebml v1.4.4 + libmatroska v1.7.1

  14. Attachments : HYXiuYingF.ttf / 华康华综体.ttf

  15. Video

  16. ID : 1

  17. Format : HEVC

  18. Format/Info : High Efficiency Video Coding

  19. Format profile : Main [email protected]@Main

  20. Codec ID : V_MPEGH/ISO/HEVC

  21. Duration : 2 h 13 min

  22. Bit rate : 5 214 kb/s

  23. Width : 1 920 pixels

  24. Height : 804 pixels

  25. Display aspect ratio : 2.40:1

  26. Frame rate mode : Constant

  27. Frame rate : 23.976 (24000/1001/53354) FPS

  28. Color space : YUV

  29. Chroma subsampling : 4:2:0

  30. Bit depth : 10 bits

  31. Bits/(Pixel*Frame) : 0.141

  32. Stream size : 4.86 GiB (89%)

  33. Title : Jubowo @ WiKi

  34. Language : Japanese

  35. Default : Yes

  36. Forced : No

  37. Audio

  38. ID : 2

  39. Format : AC-3

  40. Format/Info : Audio Coding 3

  41. Commercial name : Dolby Digital

  42. Codec ID : A_AC3

  43. Duration : 2 h 13 min

  44. Bit rate mode : Constant

  45. Bit rate : 640 kb/s

  46. Channel(s) : 6 channels

  47. Channel layout : L R C LFE Ls Rs

  48. Sampling rate : 48.0 kHz

  49. Frame rate : 31.250 FPS (1536 SPF)

  50. Compression mode : Lossy

  51. Stream size : 611 MiB (11%)

  52. Language : Japanese

  53. Service kind : Complete Main

  54. Default : Yes

  55. Forced : No

  56. Text #1

  57. ID : 3

  58. Format : ASS

  59. Codec ID : S_TEXT/ASS

  60. Codec ID/Info : Advanced Sub Station Alpha

  61. Duration : 2 h 8 min

  62. Bit rate : 72 b/s

  63. Count of elements : 1348

  64. Compression mode : Lossless

  65. Stream size : 67.9 KiB (0%)

  66. Title : 简体

  67. Language : Chinese

  68. Default : No

  69. Forced : No

  70. Text #2

  71. ID : 4

  72. Format : ASS

  73. Codec ID : S_TEXT/ASS

  74. Codec ID/Info : Advanced Sub Station Alpha

  75. Duration : 2 h 8 min

  76. Bit rate : 72 b/s

  77. Count of elements : 1348

  78. Compression mode : Lossless

  79. Stream size : 67.9 KiB (0%)

  80. Title : 繁體

  81. Language : Chinese

  82. Default : Yes

  83. Forced : No

  84. Menu

  85. 00:00:00.000 : :Chapter 01

  86. 00:07:50.136 : :Chapter 02

  87. 00:14:56.729 : :Chapter 03

  88. 00:19:55.986 : :Chapter 04

  89. 00:29:59.631 : :Chapter 05

  90. 00:36:29.104 : :Chapter 06

  91. 00:43:12.590 : :Chapter 07

  92. 00:48:06.383 : :Chapter 08

  93. 00:52:55.381 : :Chapter 09

  94. 01:02:21.529 : :Chapter 10

  95. 01:11:21.110 : :Chapter 11

  96. 01:17:12.503 : :Chapter 12

  97. 01:22:24.022 : :Chapter 13

  98. 01:28:23.256 : :Chapter 14

  99. 01:34:34.252 : :Chapter 15

  100. 01:39:30.298 : :Chapter 16

  101. 01:46:34.638 : :Chapter 17

  102. 01:55:14.908 : :Chapter 18

  103. 02:08:13.185 : :Chapter 19


复制代码



文件下载


除非特别注明,本文『太阳与波莱罗[简繁字幕].Sun.and.Bolero.2022.BluRay.x265.10bit-CTRLHD 5.46GB』来源于互联网机器人自动抓取,非本站原创。 浮游电影网不对本文拥有版权,如有侵犯,请联系邮箱:fuyouu#yandex.com[#换成@]投诉。我们会在15个工作日内删除。 但烦请转载时请标明出处:“本文转载于『浮游电影网』,原文地址:https://www.fuyouu.com/22840.html

评论吧骚年!

发表你的见解   

昵称*

E-mail*(建议输入,以便收到博主回复的提示邮件)

验证码*

您可以使用eMule或eMule Mod(Windows)、aMule(Win、Linux、Mac)等软件下载eD2k链接。。
eMule收藏集(.emulecollection)文件是您选中的所有链接的列表文件。eMule可以直接下载它们。
按住SHIFT键选择可以选中多个选择框。
可用文件名和大小选择器来选择文件。
文件名选择器帮您根据文件名称或后缀来选择文件。不分大小写。
符号使用:
和:空格( )、+
不包含:-
或:|
转义:一对英文引号("");
匹配开头:^
匹配结尾:$
例如:
选中所有名称中包含有“eMule”或“0.49c”字眼,但不包含有“exe”字眼的:emule|0.49c -exe
选中所有名称的开头是“eMule”,结尾是“0.49c”的:^emule 0.49c$
选中所有名称中带有“eMule 0.49c”的(必须是“eMule 0.49c”,中间没有别的字符,不能是“eMule fake 0.49c”),需要转义:"emule 0.49c"
大小选择器帮您根据文件大小选择文件。