当前位置: 首页 >> 国产电影 >> 非凡守护[中文字幕/国语音轨].Extraordinary.Guardian.2022.1080p.WEB-DL.H265.DDP5.1-TAGWEB 1.65GB >> 正文

非凡守护[中文字幕/国语音轨].Extraordinary.Guardian.2022.1080p.WEB-DL.H265.DDP5.1-TAGWEB 1.65GB

2022年11月05日 22:31:11     电影发布:来源于网络     电影分类:国产电影     评论(0)    

◎标 题 非凡守护

◎年 代 2022

◎产 地 中国大陆

◎类 别 剧情 / 犯罪

◎语 言 汉语普通话

◎IMDb链接 https://www.imdb.com/title//

◎豆瓣链接 https://movie.douban.com/subject/36097339/

◎片 长 98分钟

◎演 员 周显欣 Xianxin Zhou

马波 Bo Ma

◎简 介

本片根据公安英模郝世玲真实事迹改编。讲述了唐安市接警中心接到报警说机场有炸弹,基层女警郝爱玲凭借对所属辖区的了如指掌,锁定报警人为胡坤。报假警被处罚的胡坤对郝爱玲心生怨恨,在“兄弟们”的怂恿下开始针对郝爱玲并恐吓她上小学的儿子。郝爱玲明知是胡坤作乱,但考虑到他老婆怀着身 孕,几次对其一家出手相助,希望能感化胡坤改邪归正,一起揪出打架斗殴开设赌场暴力催收的涉黑团伙……

  1. ##### MediaInfo ######

  2. General

  3. Unique ID : 47224712514889476871162744185032740089 (0x2387261769AAE8D837DD97D1B9DF0CF9)

  4. Complete name : Extraordinary.Guardian.2022.1080p.WEB-DL.H265.DDP5.1-TAGWEB.mkv

  5. Format : Matroska

  6. Format version : Version 4

  7. File size : 1.65 GiB

  8. Duration : 1 h 28 min

  9. Overall bit rate : 2 671 kb/s

  10. Writing application : mkvmerge v69.0.0 ('Day And Age') 64-bit

  11. Writing library : libebml v1.4.2 + libmatroska v1.6.4

  12. Video

  13. ID : 1

  14. Format : HEVC

  15. Format/Info : High Efficiency Video Coding

  16. Format profile : [email protected]@Main

  17. Codec ID : V_MPEGH/ISO/HEVC

  18. Duration : 1 h 28 min

  19. Bit rate : 2 222 kb/s

  20. Width : 1 920 pixels

  21. Height : 808 pixels

  22. Display aspect ratio : 2.40:1

  23. Frame rate mode : Constant

  24. Frame rate : 24.000 FPS

  25. Color space : YUV

  26. Chroma subsampling : 4:2:0

  27. Bit depth : 8 bits

  28. Bits/(Pixel*Frame) : 0.060

  29. Stream size : 1.37 GiB (83%)

  30. Language : Chinese

  31. Default : Yes

  32. Forced : No

  33. Audio #1

  34. ID : 2

  35. Format : E-AC-3

  36. Format/Info : Enhanced AC-3

  37. Commercial name : Dolby Digital Plus

  38. Codec ID : A_EAC3

  39. Duration : 1 h 28 min

  40. Bit rate mode : Constant

  41. Bit rate : 256 kb/s

  42. Channel(s) : 6 channels

  43. Channel layout : L R C LFE Ls Rs

  44. Sampling rate : 48.0 kHz

  45. Frame rate : 31.250 FPS (1536 SPF)

  46. Compression mode : Lossy

  47. Stream size : 162 MiB (10%)

  48. Language : Chinese

  49. Service kind : Complete Main

  50. Default : Yes

  51. Forced : No

  52. Audio #2

  53. ID : 3

  54. Format : AAC LC

  55. Format/Info : Advanced Audio Codec Low Complexity

  56. Codec ID : A_AAC-2

  57. Duration : 1 h 28 min

  58. Bit rate : 192 kb/s

  59. Channel(s) : 2 channels

  60. Channel layout : L R

  61. Sampling rate : 48.0 kHz

  62. Frame rate : 46.875 FPS (1024 SPF)

  63. Compression mode : Lossy

  64. Stream size : 120 MiB (7%)

  65. Language : Chinese

  66. Default : No

  67. Forced : No


复制代码



文件下载


除非特别注明,本文『非凡守护[中文字幕/国语音轨].Extraordinary.Guardian.2022.1080p.WEB-DL.H265.DDP5.1-TAGWEB 1.65GB』来源于互联网机器人自动抓取,非本站原创。 浮游电影网不对本文拥有版权,如有侵犯,请联系邮箱:fuyouu#yandex.com[#换成@]投诉。我们会在15个工作日内删除。 但烦请转载时请标明出处:“本文转载于『浮游电影网』,原文地址:https://www.fuyouu.com/22839.html

评论吧骚年!

发表你的见解   

昵称*

E-mail*(建议输入,以便收到博主回复的提示邮件)

验证码*

您可以使用eMule或eMule Mod(Windows)、aMule(Win、Linux、Mac)等软件下载eD2k链接。。
eMule收藏集(.emulecollection)文件是您选中的所有链接的列表文件。eMule可以直接下载它们。
按住SHIFT键选择可以选中多个选择框。
可用文件名和大小选择器来选择文件。
文件名选择器帮您根据文件名称或后缀来选择文件。不分大小写。
符号使用:
和:空格( )、+
不包含:-
或:|
转义:一对英文引号("");
匹配开头:^
匹配结尾:$
例如:
选中所有名称中包含有“eMule”或“0.49c”字眼,但不包含有“exe”字眼的:emule|0.49c -exe
选中所有名称的开头是“eMule”,结尾是“0.49c”的:^emule 0.49c$
选中所有名称中带有“eMule 0.49c”的(必须是“eMule 0.49c”,中间没有别的字符,不能是“eMule fake 0.49c”),需要转义:"emule 0.49c"
大小选择器帮您根据文件大小选择文件。