当前位置: 首页 >> 欧美电影 >> 善恶魔法学院[简繁英字幕].The.School.for.Good.and.Evil.2022.1080p.NF.WEB-DL.x264.DDP5.1.Atmos-MOMOWEB 5.09GB >> 正文

善恶魔法学院[简繁英字幕].The.School.for.Good.and.Evil.2022.1080p.NF.WEB-DL.x264.DDP5.1.Atmos-MOMOWEB 5.09GB

2022年10月19日 23:48:38     电影发布:来源于网络     电影分类:欧美电影     评论(0)    

◎标 题 善恶魔法学院

◎译 名 善恶学校 / 善恶学院

◎片 名 The School for Good and Evil

◎年 代 2022

◎产 地 美国

◎类 别 剧情 / 动作 / 奇幻

◎语 言 英语

◎上映日期 2022-10-19(美国网络)

◎IMDb链接 https://www.imdb.com/title/tt2935622/

◎豆瓣链接 https://movie.douban.com/subject/35017053/

◎片 长 147分钟

◎导 演 保罗·费格 Paul Feig

◎编 剧 索曼·查纳尼 Soman Chainani

大卫·麦基 David Magee

劳拉·索隆 Laura Solon

◎演 员 查理兹·塞隆 Charlize Theron

凯丽·华盛顿 Kerry Washington

索菲亚·怀利 Sofia Wylie

索菲娅·安妮·卡鲁索 Sophia Anne Caruso

杨紫琼 Michelle Yeoh

凯特·布兰切特 Cate Blanchett

本·金斯利 Ben Kingsley

劳伦斯·菲什伯恩 Laurence Fishburne

罗伯·德兰尼 Rob Delaney

蕾切尔·布鲁姆 Rachel Bloom

帕蒂·卢波恩 Patti LuPone

马克·希普 Mark Heap

厄尔·凯夫 Earl Cave

Rosie Graham

杰米·福雷特斯 Jamie Flatters

基特·杨 Kit Young

Freya Parks Freya Parks

钦尼·埃祖杜 Chinenye Ezeudu

Demi Isaac Oviawe Demi Isaac Oviawe

Holly Sturton

阿里·坎 Ali Khan

蕾妮·厄尔里奇·卡尔夫斯 Renee Ehrlich Kalfus

◎简 介

在加瓦尔顿村,两个不合群的好朋友索菲(索菲娅·安妮·卡鲁索饰)和阿加莎(索菲亚·怀利饰)上演着她们之间不可思议的友谊。索菲是童话爱好者,梦想着逃离平凡的乡村生活;而阿加莎则拥有冷峻的外表,拥有真正的女巫所具备的气质。一天晚上,在血红的月亮下,一股强大的力量把她们带到了善恶魔法学院,每一个精彩童话中的真实故事都在这里拉开帷幕。然而,情势从一开始便有些不妙:索菲进了邪恶学院,由魅力四射但说话刻薄尖锐的莱索夫人(查理兹·塞隆饰)负责;阿加莎则入选善念学院,由阳光善良的多维教授(凯丽·华盛顿饰)监管。据校长(劳伦斯·菲什伯恩饰)所言,与灰姑娘和胡克船长的后代以及亚瑟王英俊的儿子(杰米·福雷特斯)一起上课似乎还算不上是什么困难,只有真爱之吻才能改变规则,让女孩们进入自己原本该去的学校。但是,当一个与索菲有着神秘关系的黑暗危险人物(基特·扬饰)再次出现,并威胁要...

  1. ##### MediaInfo ######

  2. General

  3. Unique ID : 17468946984845499209721373984291298716 (0xD2465954EBCDDAB4F34379E5B681D9C)

  4. Complete name : The.School.for.Good.and.Evil.2022.1080p.NF.WEB-DL.x264.DDP5.1.Atmos-MOMOWEB.mkv

  5. Format : Matroska

  6. Format version : Version 4

  7. File size : 5.09 GiB

  8. Duration : 2 h 28 min

  9. Overall bit rate mode : Variable

  10. Overall bit rate : 4 890 kb/s

  11. Encoded date : UTC 2022-10-19 09:12:20

  12. Writing application : mkvmerge v69.0.0 ('Day And Age') 64-bit

  13. Writing library : libebml v1.4.2 + libmatroska v1.6.4

  14. Video

  15. ID : 1

  16. Format : AVC

  17. Format/Info : Advanced Video Codec

  18. Format profile : [email protected]

  19. Format settings : CABAC / 4 Ref Frames

  20. Format settings, CABAC : Yes

  21. Format settings, Reference frames : 4 frames

  22. Codec ID : V_MPEG4/ISO/AVC

  23. Duration : 2 h 28 min

  24. Bit rate mode : Variable

  25. Bit rate : 4 116 kb/s

  26. Maximum bit rate : 20.0 Mb/s

  27. Width : 1 920 pixels

  28. Height : 1 080 pixels

  29. Display aspect ratio : 16:9

  30. Frame rate mode : Constant

  31. Frame rate : 24.000 FPS

  32. Color space : YUV

  33. Chroma subsampling : 4:2:0

  34. Bit depth : 8 bits

  35. Scan type : Progressive

  36. Bits/(Pixel*Frame) : 0.083

  37. Stream size : 4.28 GiB (84%)

  38. Writing library : x264 core 148 r2727 7d026e8

  39. Encoding settings : cabac=1 / ref=4 / deblock=1:0:0 / analyse=0x3:0x111 / me=umh / subme=10 / psy=1 / psy_rd=1.00:0.00 / mixed_ref=1 / me_range=120 / chroma_me=1 / trellis=2 / 8x8dct=1 / cqm=0 / deadzone=21,11 / fast_pskip=1 / chroma_qp_offset=-2 / threads=8 / lookahead_threads=2 / sliced_threads=0 / nr=0 / decimate=1 / interlaced=0 / NTMzNTQ= / bluray_compat=0 / stitchable=1 / constrained_intra=0 / bframes=16 / b_pyramid=2 / b_adapt=2 / b_bias=0 / direct=3 / weightb=1 / open_gop=0 / weightp=2 / keyint=240 / keyint_min=121 / scenecut=0 / intra_refresh=0 / rc_lookahead=240 / rc=crf / mbtree=1 / crf=19.0 / qcomp=0.50 / qpmin=6 / qpmax=51 / qpstep=4 / vbv_maxrate=20000 / vbv_bufsize=25000 / crf_max=0.0 / nal_hrd=vbr / filler=0 / NTMzNTQ=LmsMAP37EqsCpk / ip_ratio=1.40 / aq=1:0.80

  40. Default : Yes

  41. Forced : No

  42. Audio

  43. ID : 2

  44. Format : E-AC-3 JOC

  45. Format/Info : Enhanced AC-3 with Joint Object Coding

  46. Commercial name : Dolby Digital Plus with Dolby Atmos

  47. Codec ID : A_EAC3

  48. Duration : 2 h 28 min

  49. Bit rate mode : Constant

  50. Bit rate : 768 kb/s

  51. Channel(s) : 6 channels

  52. Channel layout : L R C LFE Ls Rs

  53. Sampling rate : 48.0 kHz

  54. Frame rate : 31.250 FPS (1536 SPF)

  55. Bit depth : 32 bits

  56. Compression mode : Lossy

  57. Stream size : 818 MiB (16%)

  58. Language : English

  59. Service kind : Complete Main

  60. Default : Yes

  61. Forced : No

  62. Complexity index : 16

  63. Number of dynamic objects : 15

  64. Bed channel count : 1 channel

  65. Bed channel configuration : LFE

  66. Text #1

  67. ID : 3

  68. Format : UTF-8

  69. Codec ID : S_TEXT/UTF8

  70. Codec ID/Info : UTF-8 Plain Text

  71. Duration : 2 h 25 min

  72. Bit rate : 43 b/s

  73. Count of elements : 1861

  74. Stream size : 46.1 KiB (0%)

  75. Title : Chinese (Simplified)

  76. Language : Chinese

  77. Default : Yes

  78. Forced : No

  79. Text #2

  80. ID : 4

  81. Format : UTF-8

  82. Codec ID : S_TEXT/UTF8

  83. Codec ID/Info : UTF-8 Plain Text

  84. Duration : 2 h 25 min

  85. Bit rate : 49 b/s

  86. Count of elements : 1921

  87. Stream size : 53.2 KiB (0%)

  88. Title : Chinese (Traditional)

  89. Language : Chinese

  90. Default : No

  91. Forced : No

  92. Text #3

  93. ID : 5

  94. Format : UTF-8

  95. Codec ID : S_TEXT/UTF8

  96. Codec ID/Info : UTF-8 Plain Text

  97. Duration : 2 h 26 min

  98. Bit rate : 91 b/s

  99. Count of elements : 3137

  100. Stream size : 98.4 KiB (0%)

  101. Title : English [SDH]

  102. Language : English

  103. Default : No

  104. Forced : No

  105. Text #4

  106. ID : 6

  107. Format : UTF-8

  108. Codec ID : S_TEXT/UTF8

  109. Codec ID/Info : UTF-8 Plain Text

  110. Duration : 2 h 25 min

  111. Bit rate : 86 b/s

  112. Count of elements : 1899

  113. Stream size : 92.3 KiB (0%)

  114. Title : Arabic

  115. Language : Arabic

  116. Default : No

  117. Forced : No

  118. Text #5

  119. ID : 7

  120. Format : UTF-8

  121. Codec ID : S_TEXT/UTF8

  122. Codec ID/Info : UTF-8 Plain Text

  123. Duration : 2 h 16 min

  124. Bit rate : 56 b/s

  125. Count of elements : 1916

  126. Stream size : 56.3 KiB (0%)

  127. Title : Czech

  128. Language : Czech

  129. Default : No

  130. Forced : No

  131. Text #6

  132. ID : 8

  133. Format : UTF-8

  134. Codec ID : S_TEXT/UTF8

  135. Codec ID/Info : UTF-8 Plain Text

  136. Duration : 2 h 26 min

  137. Bit rate : 83 b/s

  138. Count of elements : 3004

  139. Stream size : 89.1 KiB (0%)

  140. Title : Czech

  141. Language : Czech

  142. Default : No

  143. Forced : No

  144. Text #7

  145. ID : 9

  146. Format : UTF-8

  147. Codec ID : S_TEXT/UTF8

  148. Codec ID/Info : UTF-8 Plain Text

  149. Duration : 2 h 25 min

  150. Bit rate : 49 b/s

  151. Count of elements : 1772

  152. Stream size : 53.1 KiB (0%)

  153. Title : Danish

  154. Language : Danish

  155. Default : No

  156. Forced : No

  157. Text #8

  158. ID : 10

  159. Format : UTF-8

  160. Codec ID : S_TEXT/UTF8

  161. Codec ID/Info : UTF-8 Plain Text

  162. Duration : 2 h 25 min

  163. Bit rate : 55 b/s

  164. Count of elements : 1752

  165. Stream size : 59.1 KiB (0%)

  166. Title : German

  167. Language : German

  168. Default : No

  169. Forced : No

  170. Text #9

  171. ID : 11

  172. Format : UTF-8

  173. Codec ID : S_TEXT/UTF8

  174. Codec ID/Info : UTF-8 Plain Text

  175. Duration : 2 h 25 min

  176. Bit rate : 89 b/s

  177. Count of elements : 1799

  178. Stream size : 95.0 KiB (0%)

  179. Title : Greek

  180. Language : Greek

  181. Default : No

  182. Forced : No

  183. Text #10

  184. ID : 12

  185. Format : UTF-8

  186. Codec ID : S_TEXT/UTF8

  187. Codec ID/Info : UTF-8 Plain Text

  188. Duration : 2 h 25 min

  189. Bit rate : 50 b/s

  190. Count of elements : 1866

  191. Stream size : 54.3 KiB (0%)

  192. Title : Spanish (Spain)

  193. Language : Spanish

  194. Default : No

  195. Forced : No

  196. Text #11

  197. ID : 13

  198. Format : UTF-8

  199. Codec ID : S_TEXT/UTF8

  200. Codec ID/Info : UTF-8 Plain Text

  201. Duration : 2 h 17 min

  202. Bit rate : 58 b/s

  203. Count of elements : 1893

  204. Stream size : 58.7 KiB (0%)

  205. Title : Spanish

  206. Language : Spanish

  207. Default : No

  208. Forced : No

  209. Text #12

  210. ID : 14

  211. Format : UTF-8

  212. Codec ID : S_TEXT/UTF8

  213. Codec ID/Info : UTF-8 Plain Text

  214. Duration : 2 h 25 min

  215. Bit rate : 60 b/s

  216. Count of elements : 2151

  217. Stream size : 64.5 KiB (0%)

  218. Title : Spanish [SDH]

  219. Language : Spanish

  220. Default : No

  221. Forced : No

  222. Text #13

  223. ID : 15

  224. Format : UTF-8

  225. Codec ID : S_TEXT/UTF8

  226. Codec ID/Info : UTF-8 Plain Text

  227. Duration : 2 h 25 min

  228. Bit rate : 50 b/s

  229. Count of elements : 1584

  230. Stream size : 54.3 KiB (0%)

  231. Title : Finnish

  232. Language : Finnish

  233. Default : No

  234. Forced : No

  235. Text #14

  236. ID : 16

  237. Format : UTF-8

  238. Codec ID : S_TEXT/UTF8

  239. Codec ID/Info : UTF-8 Plain Text

  240. Duration : 2 h 25 min

  241. Bit rate : 53 b/s

  242. Count of elements : 1824

  243. Stream size : 57.5 KiB (0%)

  244. Title : Filipino

  245. Language : fil

  246. Default : No

  247. Forced : No

  248. Text #15

  249. ID : 17

  250. Format : UTF-8

  251. Codec ID : S_TEXT/UTF8

  252. Codec ID/Info : UTF-8 Plain Text

  253. Duration : 2 h 25 min

  254. Bit rate : 52 b/s

  255. Count of elements : 1892

  256. Stream size : 56.1 KiB (0%)

  257. Title : French

  258. Language : French

  259. Default : No

  260. Forced : No

  261. Text #16

  262. ID : 18

  263. Format : UTF-8

  264. Codec ID : S_TEXT/UTF8

  265. Codec ID/Info : UTF-8 Plain Text

  266. Duration : 2 h 25 min

  267. Bit rate : 85 b/s

  268. Count of elements : 2767

  269. Stream size : 91.8 KiB (0%)

  270. Title : French [SDH]

  271. Language : French

  272. Default : No

  273. Forced : No

  274. Text #17

  275. ID : 19

  276. Format : UTF-8

  277. Codec ID : S_TEXT/UTF8

  278. Codec ID/Info : UTF-8 Plain Text

  279. Duration : 2 h 25 min

  280. Bit rate : 82 b/s

  281. Count of elements : 1771

  282. Stream size : 87.6 KiB (0%)

  283. Title : Hebrew

  284. Language : Hebrew

  285. Default : No

  286. Forced : No

  287. Text #18

  288. ID : 20

  289. Format : UTF-8

  290. Codec ID : S_TEXT/UTF8

  291. Codec ID/Info : UTF-8 Plain Text

  292. Duration : 2 h 25 min

  293. Bit rate : 46 b/s

  294. Count of elements : 1858

  295. Stream size : 50.1 KiB (0%)

  296. Title : Croatian

  297. Language : Croatian

  298. Default : No

  299. Forced : No

  300. Text #19

  301. ID : 21

  302. Format : UTF-8

  303. Codec ID : S_TEXT/UTF8

  304. Codec ID/Info : UTF-8 Plain Text

  305. Duration : 2 h 25 min

  306. Bit rate : 54 b/s

  307. Count of elements : 1814

  308. Stream size : 57.9 KiB (0%)

  309. Title : Hungarian

  310. Language : Hungarian

  311. Default : No

  312. Forced : No

  313. Text #20

  314. ID : 22

  315. Format : UTF-8

  316. Codec ID : S_TEXT/UTF8

  317. Codec ID/Info : UTF-8 Plain Text

  318. Duration : 2 h 25 min

  319. Bit rate : 50 b/s

  320. Count of elements : 1864

  321. Stream size : 53.4 KiB (0%)

  322. Title : Indonesian

  323. Language : Indonesian

  324. Default : No

  325. Forced : No

  326. Text #21

  327. ID : 23

  328. Format : UTF-8

  329. Codec ID : S_TEXT/UTF8

  330. Codec ID/Info : UTF-8 Plain Text

  331. Duration : 2 h 25 min

  332. Bit rate : 50 b/s

  333. Count of elements : 1866

  334. Stream size : 54.4 KiB (0%)

  335. Title : Italian

  336. Language : Italian

  337. Default : No

  338. Forced : No

  339. Text #22

  340. ID : 24

  341. Format : UTF-8

  342. Codec ID : S_TEXT/UTF8

  343. Codec ID/Info : UTF-8 Plain Text

  344. Duration : 2 h 26 min

  345. Bit rate : 74 b/s

  346. Count of elements : 2770

  347. Stream size : 80.1 KiB (0%)

  348. Title : Italian [SDH]

  349. Language : Italian

  350. Default : No

  351. Forced : No

  352. Text #23

  353. ID : 25

  354. Format : UTF-8

  355. Codec ID : S_TEXT/UTF8

  356. Codec ID/Info : UTF-8 Plain Text

  357. Duration : 2 h 25 min

  358. Bit rate : 98 b/s

  359. Count of elements : 1849

  360. Stream size : 106 KiB (0%)

  361. Title : Japanese

  362. Language : Japanese

  363. Default : No

  364. Forced : No

  365. Text #24

  366. ID : 26

  367. Format : UTF-8

  368. Codec ID : S_TEXT/UTF8

  369. Codec ID/Info : UTF-8 Plain Text

  370. Duration : 2 h 25 min

  371. Bit rate : 55 b/s

  372. Count of elements : 1882

  373. Stream size : 58.7 KiB (0%)

  374. Title : Korean

  375. Language : Korean

  376. Default : No

  377. Forced : No

  378. Text #25

  379. ID : 27

  380. Format : UTF-8

  381. Codec ID : S_TEXT/UTF8

  382. Codec ID/Info : UTF-8 Plain Text

  383. Duration : 2 h 25 min

  384. Bit rate : 49 b/s

  385. Count of elements : 1838

  386. Stream size : 52.6 KiB (0%)

  387. Title : Malay

  388. Language : Malay

  389. Default : No

  390. Forced : No

  391. Text #26

  392. ID : 28

  393. Format : UTF-8

  394. Codec ID : S_TEXT/UTF8

  395. Codec ID/Info : UTF-8 Plain Text

  396. Duration : 2 h 25 min

  397. Bit rate : 49 b/s

  398. Count of elements : 1713

  399. Stream size : 52.3 KiB (0%)

  400. Title : Norwegian (Bokmal)

  401. Language : Norwegian Bokmal

  402. Default : No

  403. Forced : No

  404. Text #27

  405. ID : 29

  406. Format : UTF-8

  407. Codec ID : S_TEXT/UTF8

  408. Codec ID/Info : UTF-8 Plain Text

  409. Duration : 2 h 25 min

  410. Bit rate : 46 b/s

  411. Count of elements : 1646

  412. Stream size : 49.8 KiB (0%)

  413. Title : Dutch

  414. Language : Dutch

  415. Default : No

  416. Forced : No

  417. Text #28

  418. ID : 30

  419. Format : UTF-8

  420. Codec ID : S_TEXT/UTF8

  421. Codec ID/Info : UTF-8 Plain Text

  422. Duration : 2 h 25 min

  423. Bit rate : 50 b/s

  424. Count of elements : 1854

  425. Stream size : 53.8 KiB (0%)

  426. Title : Polish

  427. Language : Polish

  428. Default : No

  429. Forced : No

  430. Text #29

  431. ID : 31

  432. Format : UTF-8

  433. Codec ID : S_TEXT/UTF8

  434. Codec ID/Info : UTF-8 Plain Text

  435. Duration : 2 h 17 min

  436. Bit rate : 60 b/s

  437. Count of elements : 2036

  438. Stream size : 60.5 KiB (0%)

  439. Title : Portuguese (Brazil)

  440. Language : Portuguese

  441. Default : No

  442. Forced : No

  443. Text #30

  444. ID : 32

  445. Format : UTF-8

  446. Codec ID : S_TEXT/UTF8

  447. Codec ID/Info : UTF-8 Plain Text

  448. Duration : 2 h 17 min

  449. Bit rate : 69 b/s

  450. Count of elements : 2480

  451. Stream size : 69.7 KiB (0%)

  452. Title : Portuguese (Brazil) [SDH]

  453. Language : Portuguese

  454. Default : No

  455. Forced : No

  456. Text #31

  457. ID : 33

  458. Format : UTF-8

  459. Codec ID : S_TEXT/UTF8

  460. Codec ID/Info : UTF-8 Plain Text

  461. Duration : 2 h 25 min

  462. Bit rate : 51 b/s

  463. Count of elements : 1800

  464. Stream size : 54.6 KiB (0%)

  465. Title : Portuguese

  466. Language : Portuguese

  467. Default : No

  468. Forced : No

  469. Text #32

  470. ID : 34

  471. Format : UTF-8

  472. Codec ID : S_TEXT/UTF8

  473. Codec ID/Info : UTF-8 Plain Text

  474. Duration : 2 h 25 min

  475. Bit rate : 53 b/s

  476. Count of elements : 1784

  477. Stream size : 57.0 KiB (0%)

  478. Title : Romanian

  479. Language : Romanian

  480. Default : No

  481. Forced : No

  482. Text #33

  483. ID : 35

  484. Format : UTF-8

  485. Codec ID : S_TEXT/UTF8

  486. Codec ID/Info : UTF-8 Plain Text

  487. Duration : 2 h 25 min

  488. Bit rate : 82 b/s

  489. Count of elements : 1867

  490. Stream size : 87.9 KiB (0%)

  491. Title : Russian

  492. Language : Russian

  493. Default : No

  494. Forced : No

  495. Text #34

  496. ID : 36

  497. Format : UTF-8

  498. Codec ID : S_TEXT/UTF8

  499. Codec ID/Info : UTF-8 Plain Text

  500. Duration : 2 h 25 min

  501. Bit rate : 49 b/s

  502. Count of elements : 1708

  503. Stream size : 53.2 KiB (0%)

  504. Title : Swedish

  505. Language : Swedish

  506. Default : No

  507. Forced : No

  508. Text #35

  509. ID : 37

  510. Format : UTF-8

  511. Codec ID : S_TEXT/UTF8

  512. Codec ID/Info : UTF-8 Plain Text

  513. Duration : 2 h 25 min

  514. Bit rate : 127 b/s

  515. Count of elements : 1869

  516. Stream size : 136 KiB (0%)

  517. Title : Thai

  518. Language : Thai

  519. Default : No

  520. Forced : No

  521. Text #36

  522. ID : 38

  523. Format : UTF-8

  524. Codec ID : S_TEXT/UTF8

  525. Codec ID/Info : UTF-8 Plain Text

  526. Duration : 2 h 25 min

  527. Bit rate : 53 b/s

  528. Count of elements : 1556

  529. Stream size : 57.2 KiB (0%)

  530. Title : Turkish

  531. Language : Turkish

  532. Default : No

  533. Forced : No

  534. Text #37

  535. ID : 39

  536. Format : UTF-8

  537. Codec ID : S_TEXT/UTF8

  538. Codec ID/Info : UTF-8 Plain Text

  539. Duration : 2 h 25 min

  540. Bit rate : 85 b/s

  541. Count of elements : 1859

  542. Stream size : 90.8 KiB (0%)

  543. Title : Ukrainian

  544. Language : Ukrainian

  545. Default : No

  546. Forced : No

  547. Text #38

  548. ID : 40

  549. Format : UTF-8

  550. Codec ID : S_TEXT/UTF8

  551. Codec ID/Info : UTF-8 Plain Text

  552. Duration : 2 h 25 min

  553. Bit rate : 68 b/s

  554. Count of elements : 1834

  555. Stream size : 73.3 KiB (0%)

  556. Title : Vietnamese

  557. Language : Vietnamese

  558. Default : No

  559. Forced : No


复制代码



文件下载


除非特别注明,本文『善恶魔法学院[简繁英字幕].The.School.for.Good.and.Evil.2022.1080p.NF.WEB-DL.x264.DDP5.1.Atmos-MOMOWEB 5.09GB』来源于互联网机器人自动抓取,非本站原创。 浮游电影网不对本文拥有版权,如有侵犯,请联系邮箱:fuyouu#yandex.com[#换成@]投诉。我们会在15个工作日内删除。 但烦请转载时请标明出处:“本文转载于『浮游电影网』,原文地址:https://www.fuyouu.com/22828.html

评论吧骚年!

发表你的见解   

昵称*

E-mail*(建议输入,以便收到博主回复的提示邮件)

验证码*

您可以使用eMule或eMule Mod(Windows)、aMule(Win、Linux、Mac)等软件下载eD2k链接。。
eMule收藏集(.emulecollection)文件是您选中的所有链接的列表文件。eMule可以直接下载它们。
按住SHIFT键选择可以选中多个选择框。
可用文件名和大小选择器来选择文件。
文件名选择器帮您根据文件名称或后缀来选择文件。不分大小写。
符号使用:
和:空格( )、+
不包含:-
或:|
转义:一对英文引号("");
匹配开头:^
匹配结尾:$
例如:
选中所有名称中包含有“eMule”或“0.49c”字眼,但不包含有“exe”字眼的:emule|0.49c -exe
选中所有名称的开头是“eMule”,结尾是“0.49c”的:^emule 0.49c$
选中所有名称中带有“eMule 0.49c”的(必须是“eMule 0.49c”,中间没有别的字符,不能是“eMule fake 0.49c”),需要转义:"emule 0.49c"
大小选择器帮您根据文件大小选择文件。