当前位置: 首页 >> 国产电影 >> 黑鹰少年[60帧率版本][国语配音/中文字幕].Team.Black.Hawk.2022.2160p.60FPS.WEB-DL.H265.DDP2.0-NUMTV 3.98GB >> 正文

黑鹰少年[60帧率版本][国语配音/中文字幕].Team.Black.Hawk.2022.2160p.60FPS.WEB-DL.H265.DDP2.0-NUMTV 3.98GB

2022年10月15日 17:55:57     电影发布:来源于网络     电影分类:国产电影     评论(0)    

◎标 题 黑鹰少年

◎译 名 Team Black Hawk

◎年 代 2022

◎产 地 中国大陆

◎类 别 剧情 / 儿童 / 运动

◎语 言 汉语普通话

◎上映日期 2022-10-11(中国大陆网络)

◎IMDb链接 https://www.imdb.com/title//

◎豆瓣链接 https://movie.douban.com/subject/36088962/

◎片 长 91分钟

◎导 演 安佳星 Jiaxing An

陈亮言 Liangyan Chen

◎编 剧 朱天龙 Tianlong Zhu

安佳星 Jiaxing An

梁释跃 Shiyue Liang

◎演 员 潘子剑 Zijian Pan

西木西木 Shemshem

张星禾 Xinghe Zhang

古古罗加子

苟吉木呷

古古拉力子

的的石一拿

阿布呷呷

◎简 介

影片是根据真人真事改编的励志体育电影。来自凉山州彝族自治区阿沙莫村的瓦尔阿木从成都的修理厂辞职回到老家准备组建一只少儿篮球队,发小索吉前来帮忙。虽然条件艰苦,但众人一起努力让孩子们实现篮球梦想,凉山黑鹰的精神也传开了。孩子们靠着扎实的篮球技术打出了大山,而阿木则不忘初心重返大山帮助更多的孩子们。

  1. ##### MediaInfo ######

  2. General

  3. Complete name : 黑鹰少年.Team.Black.Hawk.2022.2160p.60FPS.WEB-DL.H265.DDP2.0-NUMTV.mp4

  4. Format : MPEG-4

  5. Format profile : Base Media

  6. Codec ID : isom (isom/dby1/iso2/mp41)

  7. File size : 3.98 GiB

  8. Duration : 1 h 31 min

  9. Overall bit rate mode : Variable

  10. Overall bit rate : 6 220 kb/s

  11. Writing application : OurTV Multimedia Platform

  12. Video

  13. ID : 1

  14. Format : HEVC

  15. Format/Info : High Efficiency Video Coding

  16. Format profile : [email protected]@Main

  17. Codec ID : hev1

  18. Codec ID/Info : High Efficiency Video Coding

  19. Duration : 1 h 31 min

  20. Bit rate : 5 766 kb/s

  21. Width : 3 840 pixels

  22. Height : 1 632 pixels

  23. Display aspect ratio : 2.35:1

  24. Frame rate mode : Constant

  25. Frame rate : 60.000 FPS

  26. Color space : YUV

  27. Chroma subsampling : 4:2:0

  28. Bit depth : 8 bits

  29. Bits/(Pixel*Frame) : 0.015

  30. Stream size : 3.69 GiB (93%)

  31. Color range : Limited

  32. Color primaries : BT.709

  33. Transfer characteristics : BT.709

  34. Matrix coefficients : BT.709

  35. Codec configuration box : hvcC

  36. Audio #1

  37. ID : 2

  38. Format : E-AC-3

  39. Format/Info : Enhanced AC-3

  40. Commercial name : Dolby Digital Plus

  41. Codec ID : ec-3

  42. Duration : 1 h 31 min

  43. Bit rate mode : Constant

  44. Bit rate : 256 kb/s

  45. Channel(s) : 2 channels

  46. Channel layout : L R

  47. Sampling rate : 48.0 kHz

  48. Frame rate : 31.250 FPS (1536 SPF)

  49. Compression mode : Lossy

  50. Stream size : 168 MiB (4%)

  51. Title : 国语DDP2.0

  52. Language : Chinese

  53. Service kind : Complete Main

  54. Default : Yes

  55. Alternate group : 1

  56. Audio #2

  57. ID : 3

  58. Format : AAC LC

  59. Format/Info : Advanced Audio Codec Low Complexity

  60. Codec ID : mp4a-40-2

  61. Duration : 1 h 31 min

  62. Bit rate mode : Variable

  63. Bit rate : 192 kb/s

  64. Channel(s) : 2 channels

  65. Channel layout : L R

  66. Sampling rate : 44.1 kHz

  67. Frame rate : 43.066 FPS (1024 SPF)

  68. Compression mode : Lossy

  69. Stream size : 124 MiB (3%)

  70. Title : 国语AAC2.0

  71. Language : Chinese

  72. Default : No

  73. Alternate group : 1


复制代码



文件下载


除非特别注明,本文『黑鹰少年[60帧率版本][国语配音/中文字幕].Team.Black.Hawk.2022.2160p.60FPS.WEB-DL.H265.DDP2.0-NUMTV 3.98GB』来源于互联网机器人自动抓取,非本站原创。 浮游电影网不对本文拥有版权,如有侵犯,请联系邮箱:fuyouu#yandex.com[#换成@]投诉。我们会在15个工作日内删除。 但烦请转载时请标明出处:“本文转载于『浮游电影网』,原文地址:https://www.fuyouu.com/22824.html

评论吧骚年!

发表你的见解   

昵称*

E-mail*(建议输入,以便收到博主回复的提示邮件)

验证码*

您可以使用eMule或eMule Mod(Windows)、aMule(Win、Linux、Mac)等软件下载eD2k链接。。
eMule收藏集(.emulecollection)文件是您选中的所有链接的列表文件。eMule可以直接下载它们。
按住SHIFT键选择可以选中多个选择框。
可用文件名和大小选择器来选择文件。
文件名选择器帮您根据文件名称或后缀来选择文件。不分大小写。
符号使用:
和:空格( )、+
不包含:-
或:|
转义:一对英文引号("");
匹配开头:^
匹配结尾:$
例如:
选中所有名称中包含有“eMule”或“0.49c”字眼,但不包含有“exe”字眼的:emule|0.49c -exe
选中所有名称的开头是“eMule”,结尾是“0.49c”的:^emule 0.49c$
选中所有名称中带有“eMule 0.49c”的(必须是“eMule 0.49c”,中间没有别的字符,不能是“eMule fake 0.49c”),需要转义:"emule 0.49c"
大小选择器帮您根据文件大小选择文件。