当前位置: 首页 >> 国产电影 >> 一盘大棋[中文字幕/国语音轨].Big.Three.Dragons.2022.1080p.WEB-DL.H265.DDP5.1-TAGWEB 1.74GB >> 正文

一盘大棋[中文字幕/国语音轨].Big.Three.Dragons.2022.1080p.WEB-DL.H265.DDP5.1-TAGWEB 1.74GB

2022年10月07日 08:32:23     电影发布:来源于网络     电影分类:国产电影     评论(0)    

◎标 题 一盘大棋

◎译 名 蚂蚁撼大象 / 弹棉花

◎年 代 2022

◎产 地 中国大陆

◎类 别 剧情 / 喜剧

◎语 言 汉语普通话

◎上映日期 2022-10-04(中国大陆网络)

◎IMDb链接 https://www.imdb.com/title//

◎豆瓣链接 https://movie.douban.com/subject/35672520/

◎导 演 江涛 Tao Jiang

◎演 员 郭涛 Tao Guo

小沈阳 Xiao Shen-Yang

修睿 Rui Xiu

张艺上 Yishang Zhang

范明 Ming Fan

喻恩泰 Entai Yu

◎简 介

老段(郭涛 饰)多年前因涉嫌一桩案件入狱,刚出狱的他为搞清当年的真相,执意谋划了一盘万般凶险的骗中骗大棋。谁料,此番行动中却卷入了他与三个前妻的三个性格迥异的孩子吴文(小沈阳 饰)、莫墨(修睿 饰)、唐宁(张艺上 饰)。一家四口一边联手抗敌,一边互相拆台,究竟是“大小狐狸”上阵父子兵,还是“猫鼠游戏”尔虞我诈,随着一切都逐渐走向失控,这出反转不断的荒诞喜剧让人永远猜不到下一步棋会怎么走……

  1. ##### MediaInfo ######

  2. General

  3. Unique ID : 40554623053201115701336791567570145068 (0x1E82894A713C094D66F22E5F04118F2C)

  4. Complete name : Big.Three.Dragons.2022.1080p.WEB-DL.H265.DDP5.1-TAGWEB.mkv

  5. Format : Matroska

  6. Format version : Version 4

  7. File size : 1.74 GiB

  8. Duration : 1 h 36 min

  9. Overall bit rate : 2 572 kb/s

  10. Encoded date : UTC 2022-10-05 00:52:58

  11. Writing application : mkvmerge v62.0.0 ('Apollo') 64-bit

  12. Writing library : libebml v1.4.2 + libmatroska v1.6.4

  13. Video

  14. ID : 1

  15. Format : HEVC

  16. Format/Info : High Efficiency Video Coding

  17. Format profile : [email protected]@Main

  18. Codec ID : V_MPEGH/ISO/HEVC

  19. Duration : 1 h 36 min

  20. Bit rate : 2 124 kb/s

  21. Width : 1 920 pixels

  22. Height : 872 pixels

  23. Display aspect ratio : 2.2:1

  24. Frame rate mode : Constant

  25. Frame rate : 24.000 FPS

  26. Color space : YUV

  27. Chroma subsampling : 4:2:0

  28. Bit depth : 8 bits

  29. Bits/(Pixel*Frame) : 0.053

  30. Stream size : 1.44 GiB (83%)

  31. Default : Yes

  32. Forced : No

  33. Audio #1

  34. ID : 2

  35. Format : E-AC-3

  36. Format/Info : Enhanced AC-3

  37. Commercial name : Dolby Digital Plus

  38. Codec ID : A_EAC3

  39. Duration : 1 h 36 min

  40. Bit rate mode : Constant

  41. Bit rate : 256 kb/s

  42. Channel(s) : 6 channels

  43. Channel layout : L R C LFE Ls Rs

  44. Sampling rate : 48.0 kHz

  45. Frame rate : 31.250 FPS (1536 SPF)

  46. Compression mode : Lossy

  47. Stream size : 177 MiB (10%)

  48. Title : 国语

  49. Language : Chinese

  50. Service kind : Complete Main

  51. Default : Yes

  52. Forced : No

  53. Audio #2

  54. ID : 3

  55. Format : AAC LC

  56. Format/Info : Advanced Audio Codec Low Complexity

  57. Codec ID : A_AAC-2

  58. Duration : 1 h 36 min

  59. Bit rate : 192 kb/s

  60. Channel(s) : 2 channels

  61. Channel layout : L R

  62. Sampling rate : 44.1 kHz

  63. Frame rate : 43.066 FPS (1024 SPF)

  64. Compression mode : Lossy

  65. Stream size : 131 MiB (7%)

  66. Language : Chinese

  67. Default : Yes

  68. Forced : No


复制代码



文件下载


除非特别注明,本文『一盘大棋[中文字幕/国语音轨].Big.Three.Dragons.2022.1080p.WEB-DL.H265.DDP5.1-TAGWEB 1.74GB』来源于互联网机器人自动抓取,非本站原创。 浮游电影网不对本文拥有版权,如有侵犯,请联系邮箱:fuyouu#yandex.com[#换成@]投诉。我们会在15个工作日内删除。 但烦请转载时请标明出处:“本文转载于『浮游电影网』,原文地址:https://www.fuyouu.com/22820.html

评论吧骚年!

发表你的见解   

昵称*

E-mail*(建议输入,以便收到博主回复的提示邮件)

验证码*

您可以使用eMule或eMule Mod(Windows)、aMule(Win、Linux、Mac)等软件下载eD2k链接。。
eMule收藏集(.emulecollection)文件是您选中的所有链接的列表文件。eMule可以直接下载它们。
按住SHIFT键选择可以选中多个选择框。
可用文件名和大小选择器来选择文件。
文件名选择器帮您根据文件名称或后缀来选择文件。不分大小写。
符号使用:
和:空格( )、+
不包含:-
或:|
转义:一对英文引号("");
匹配开头:^
匹配结尾:$
例如:
选中所有名称中包含有“eMule”或“0.49c”字眼,但不包含有“exe”字眼的:emule|0.49c -exe
选中所有名称的开头是“eMule”,结尾是“0.49c”的:^emule 0.49c$
选中所有名称中带有“eMule 0.49c”的(必须是“eMule 0.49c”,中间没有别的字符,不能是“eMule fake 0.49c”),需要转义:"emule 0.49c"
大小选择器帮您根据文件大小选择文件。