当前位置: 首页 >> 海外电影 >> 双子座计划[简繁英字幕].Project.Gemini.2022.1080p.BluRay.DTS.x265-10bit-BATHD 4.09GB >> 正文

双子座计划[简繁英字幕].Project.Gemini.2022.1080p.BluRay.DTS.x265-10bit-BATHD 4.09GB

2022年10月07日 08:29:35     电影发布:来源于网络     电影分类:海外电影     评论(0)    

◎标 题 双子座计划

◎译 名 Project 'Gemini' / Proekt 'Gemini'

◎片 名 Звёздный разум

◎年 代 2022

◎产 地 俄罗斯

◎类 别 科幻 / 惊悚

◎语 言 俄语

◎上映日期 2022-01-06(俄罗斯)

◎IMDb评分 3.4/10 (1827人评价)

◎IMDb链接 https://www.imdb.com/title/tt5656994/

◎豆瓣评分 5.0/10 (152人评价)

◎豆瓣链接 https://movie.douban.com/subject/30323197/

◎片 长 100分钟

◎导 演 维亚切斯拉夫·利斯涅夫斯基 Vyacheslav Lisnevskiy

◎编 剧 维亚切斯拉夫·利斯涅夫斯基 Vyacheslav Lisnevskiy

◎演 员 亚历山大·昆泽内斯特罗夫 Alexander Kuznetsov

伊戈尔·卡列斯科夫 Egor Koreshkov

谢尔盖·科姆珀 Sergey Kempo

◎简 介

讲述了一次太空任务,人类要将一颗遥远的星球改造成地球。然而,在实施任务的过程中遇到了一些未知的东西,它对这个星球有自己的计划。

  1. ##### MediaInfo ######

  2. General

  3. Unique ID : 131236689443152528562749256792058545590 (0x62BB445A1E0A5E7734EB9FF11BBAC5B6)

  4. Complete name : Project.Gemini.2022.1080p.BluRay.DTS.x265-10bit-BATHD.mkv

  5. Format : Matroska

  6. Format version : Version 4

  7. File size : 4.09 GiB

  8. Duration : 1 h 38 min

  9. Overall bit rate : 5 963 kb/s

  10. Movie name : Project Gemini 2022 1080p BluRay DTS x265-10bit-HDS

  11. Encoded date : UTC 2022-10-05 12:13:20

  12. Writing application : mkvmerge v67.0.0 ('Under Stars') 64-bit

  13. Writing library : libebml v1.4.2 + libmatroska v1.6.4

  14. Video

  15. ID : 1

  16. Format : HEVC

  17. Format/Info : High Efficiency Video Coding

  18. Format profile : Main [email protected]@High

  19. Codec ID : V_MPEGH/ISO/HEVC

  20. Duration : 1 h 38 min

  21. Bit rate : 4 413 kb/s

  22. Width : 1 920 pixels

  23. Height : 804 pixels

  24. Display aspect ratio : 2.40:1

  25. Frame rate mode : Constant

  26. Frame rate : 24.000 FPS

  27. Color space : YUV

  28. Chroma subsampling : 4:2:0

  29. Bit depth : 10 bits

  30. Bits/(Pixel*Frame) : 0.119

  31. Stream size : 3.03 GiB (74%)

  32. Title : [email protected]

  33. Writing library : x265 - H.265/HEVC codec

  34. Default : Yes

  35. Forced : No

  36. Audio

  37. ID : 2

  38. Format : DTS

  39. Format/Info : Digital Theater Systems

  40. Codec ID : A_DTS

  41. Duration : 1 h 38 min

  42. Bit rate mode : Constant

  43. Bit rate : 1 509 kb/s

  44. Channel(s) : 6 channels

  45. Channel layout : C L R Ls Rs LFE

  46. Sampling rate : 48.0 kHz

  47. Frame rate : 93.750 FPS (512 SPF)

  48. Bit depth : 24 bits

  49. Compression mode : Lossy

  50. Stream size : 1.04 GiB (25%)

  51. Title : English

  52. Language : English

  53. Default : Yes

  54. Forced : No

  55. Text #1

  56. ID : 3

  57. Format : PGS

  58. Muxing mode : zlib

  59. Codec ID : S_HDMV/PGS

  60. Codec ID/Info : Picture based subtitle format used on BDs/HD-DVDs

  61. Duration : 1 h 33 min

  62. Bit rate : 24.0 kb/s

  63. Count of elements : 1572

  64. Stream size : 16.1 MiB (0%)

  65. Title : CHS

  66. Language : Chinese

  67. Default : Yes

  68. Forced : No

  69. Text #2

  70. ID : 4

  71. Format : PGS

  72. Muxing mode : zlib

  73. Codec ID : S_HDMV/PGS

  74. Codec ID/Info : Picture based subtitle format used on BDs/HD-DVDs

  75. Duration : 1 h 33 min

  76. Bit rate : 24.7 kb/s

  77. Count of elements : 1572

  78. Stream size : 16.6 MiB (0%)

  79. Title : CHT

  80. Language : Chinese

  81. Default : Yes

  82. Forced : No

  83. Text #3

  84. ID : 5

  85. Format : PGS

  86. Muxing mode : zlib

  87. Codec ID : S_HDMV/PGS

  88. Codec ID/Info : Picture based subtitle format used on BDs/HD-DVDs

  89. Duration : 1 h 37 min

  90. Bit rate : 34.9 kb/s

  91. Count of elements : 2703

  92. Stream size : 24.2 MiB (1%)

  93. Title : ENG

  94. Language : English

  95. Default : Yes

  96. Forced : No

  97. Menu

  98. 00:00:00.000 : en:第 01 章

  99. 00:07:35.458 : en:第 02 章

  100. 00:15:36.125 : en:第 03 章

  101. 00:23:03.542 : en:第 04 章

  102. 00:30:20.292 : en:第 05 章

  103. 00:39:15.083 : en:第 06 章

  104. 00:52:17.000 : en:第 07 章

  105. 01:01:12.708 : en:第 08 章

  106. 01:10:04.792 : en:第 09 章

  107. 01:17:38.750 : en:第 10 章

  108. 01:26:37.667 : en:第 11 章


复制代码



文件下载


除非特别注明,本文『双子座计划[简繁英字幕].Project.Gemini.2022.1080p.BluRay.DTS.x265-10bit-BATHD 4.09GB』来源于互联网机器人自动抓取,非本站原创。 浮游电影网不对本文拥有版权,如有侵犯,请联系邮箱:fuyouu#yandex.com[#换成@]投诉。我们会在15个工作日内删除。 但烦请转载时请标明出处:“本文转载于『浮游电影网』,原文地址:https://www.fuyouu.com/22817.html

评论吧骚年!

发表你的见解   

昵称*

E-mail*(建议输入,以便收到博主回复的提示邮件)

验证码*

您可以使用eMule或eMule Mod(Windows)、aMule(Win、Linux、Mac)等软件下载eD2k链接。。
eMule收藏集(.emulecollection)文件是您选中的所有链接的列表文件。eMule可以直接下载它们。
按住SHIFT键选择可以选中多个选择框。
可用文件名和大小选择器来选择文件。
文件名选择器帮您根据文件名称或后缀来选择文件。不分大小写。
符号使用:
和:空格( )、+
不包含:-
或:|
转义:一对英文引号("");
匹配开头:^
匹配结尾:$
例如:
选中所有名称中包含有“eMule”或“0.49c”字眼,但不包含有“exe”字眼的:emule|0.49c -exe
选中所有名称的开头是“eMule”,结尾是“0.49c”的:^emule 0.49c$
选中所有名称中带有“eMule 0.49c”的(必须是“eMule 0.49c”,中间没有别的字符,不能是“eMule fake 0.49c”),需要转义:"emule 0.49c"
大小选择器帮您根据文件大小选择文件。