当前位置: 首页 >> 欧美电影 >> 撒玛利亚[简繁英字幕].Samaritan.2022.1080p.AMZN.WEB-DL.H264.DDP5.1-TAGWEB 3.67GB >> 正文

撒玛利亚[简繁英字幕].Samaritan.2022.1080p.AMZN.WEB-DL.H264.DDP5.1-TAGWEB 3.67GB

2022年09月10日 10:49:29     电影发布:来源于网络     电影分类:欧美电影     评论(0)    

◎标 题 撒玛利亚

◎片 名 Samaritan

◎年 代 2022

◎产 地 美国

◎类 别 剧情 / 动作 / 科幻 / 奇幻

◎语 言 英语

◎上映日期 2022-08-26(美国网络)

◎IMDb评分 7.8/10 (56人评价)

◎IMDb链接 https://www.imdb.com/title/tt5500218/

◎豆瓣链接 https://movie.douban.com/subject/30354162/

◎片 长 99分钟

◎导 演 朱利叶斯·艾弗里 Julius Avery

◎编 剧 布拉吉·F·舒特 Bragi F. Schut

◎演 员 西尔维斯特·史泰龙 Sylvester Stallone

杰文·旺纳·沃尔顿 Javon 'Wanna' Walton

皮鲁·埃斯贝克 Pilou Asbæk

达丝莎·坡兰科 Dascha Polanco

马丁·斯塔尔 Martin Starr

莫伊塞斯·阿里亚斯 Moises Arias

索菲亚·塔图姆 Sophia Tatum

迈克尔·艾伦·米利甘 Michael Aaron Milligan

尼古拉斯·罗根 Nicholas Logan

里奇·蒙哥马利 Ritchie Montgomery

乔·奈泽维奇 Joe Knezevich

小戴维·M·桑多瓦尔 David M Sandoval Jr.

拉希姆·赖利 Rahiem Riley

安东尼·B·哈里斯 Anthony B. Harris

娜塔莎·卡拉姆 Natacha Karam

◎简 介

西尔维斯特·史泰龙旗下制片公司巴尔博亚制片公司(Balboa Productions)将打造多部影片,其中史泰龙或将参演两部影片[撒玛利亚](Samaritan,暂译)及[亨特](Hunter,暂译)。

[撒玛利亚]由布拉吉·F·舒特编剧,该片定义为黑暗且具有新鲜感的超级英雄题材影片,该片预计明年开拍。

  1. ##### MediaInfo ######

  2. General

  3. Unique ID : 48550388618343491923932411193639785591 (0x248676F83A90E9A0A62DC238A6EB5477)

  4. Complete name : Samaritan.2022.1080p.AMZN.WEB-DL.H264.DDP5.1-TAGWEB.mkv

  5. Format : Matroska

  6. Format version : Version 4

  7. File size : 3.66 GiB

  8. Duration : 1 h 42 min

  9. Overall bit rate : 5 125 kb/s

  10. Encoded date : UTC 2022-09-08 13:14:29

  11. Writing application : mkvmerge v70.0.0 ('Caught A Lite Sneeze') 64-bit

  12. Writing library : libebml v1.4.2 + libmatroska v1.6.4

  13. Video

  14. ID : 1

  15. Format : AVC

  16. Format/Info : Advanced Video Codec

  17. Format profile : [email protected]

  18. Format settings : CABAC / 4 Ref Frames

  19. Format settings, CABAC : Yes

  20. Format settings, Reference frames : 4 frames

  21. Codec ID : V_MPEG4/ISO/AVC

  22. Duration : 1 h 42 min

  23. Bit rate : 4 479 kb/s

  24. Width : 1 920 pixels

  25. Height : 800 pixels

  26. Display aspect ratio : 2.40:1

  27. Frame rate mode : Constant

  28. Frame rate : 23.976 (24000/1001/53354) FPS

  29. Color space : YUV

  30. Chroma subsampling : 4:2:0

  31. Bit depth : 8 bits

  32. Scan type : Progressive

  33. Bits/(Pixel*Frame) : 0.122

  34. Stream size : 3.20 GiB (87%)

  35. Language : English

  36. Default : Yes

  37. Forced : No

  38. Color range : Limited

  39. Color primaries : BT.709

  40. Transfer characteristics : BT.709

  41. Matrix coefficients : BT.709

  42. Audio

  43. ID : 2

  44. Format : E-AC-3

  45. Format/Info : Enhanced AC-3

  46. Commercial name : Dolby Digital Plus

  47. Codec ID : A_EAC3

  48. Duration : 1 h 42 min

  49. Bit rate mode : Constant

  50. Bit rate : 640 kb/s

  51. Channel(s) : 6 channels

  52. Channel layout : L R C LFE Ls Rs

  53. Sampling rate : 48.0 kHz

  54. Frame rate : 31.250 FPS (1536 SPF)

  55. Compression mode : Lossy

  56. Stream size : 468 MiB (12%)

  57. Title : English

  58. Language : English

  59. Service kind : Complete Main

  60. Default : Yes

  61. Forced : No

  62. Text #1

  63. ID : 3

  64. Format : UTF-8

  65. Codec ID : S_TEXT/UTF8

  66. Codec ID/Info : UTF-8 Plain Text

  67. Duration : 1 h 38 min

  68. Bit rate : 39 b/s

  69. Count of elements : 1184

  70. Stream size : 28.9 KiB (0%)

  71. Title : 中文 (简体)

  72. Language : Chinese

  73. Default : Yes

  74. Forced : No

  75. Text #2

  76. ID : 4

  77. Format : UTF-8

  78. Codec ID : S_TEXT/UTF8

  79. Codec ID/Info : UTF-8 Plain Text

  80. Duration : 1 h 38 min

  81. Bit rate : 39 b/s

  82. Count of elements : 1182

  83. Stream size : 28.3 KiB (0%)

  84. Title : 中文 (繁體)

  85. Language : Chinese

  86. Default : No

  87. Forced : No

  88. Text #3

  89. ID : 5

  90. Format : UTF-8

  91. Codec ID : S_TEXT/UTF8

  92. Codec ID/Info : UTF-8 Plain Text

  93. Duration : 1 h 33 min

  94. Bit rate : 52 b/s

  95. Count of elements : 1423

  96. Stream size : 36.3 KiB (0%)

  97. Title : English (United States)

  98. Language : English

  99. Default : No

  100. Forced : No

  101. Text #4

  102. ID : 6

  103. Format : UTF-8

  104. Codec ID : S_TEXT/UTF8

  105. Codec ID/Info : UTF-8 Plain Text

  106. Duration : 1 h 38 min

  107. Bit rate : 69 b/s

  108. Count of elements : 1174

  109. Stream size : 50.0 KiB (0%)

  110. Title : ??????? (??????)

  111. Language : Arabic

  112. Default : No

  113. Forced : No

  114. Text #5

  115. ID : 7

  116. Format : UTF-8

  117. Codec ID : S_TEXT/UTF8

  118. Codec ID/Info : UTF-8 Plain Text

  119. Duration : 1 h 38 min

  120. Bit rate : 35 b/s

  121. Count of elements : 1166

  122. Stream size : 26.0 KiB (0%)

  123. Title : català (Espanya)

  124. Language : Catalan

  125. Default : No

  126. Forced : No

  127. Text #6

  128. ID : 8

  129. Format : UTF-8

  130. Codec ID : S_TEXT/UTF8

  131. Codec ID/Info : UTF-8 Plain Text

  132. Duration : 1 h 38 min

  133. Bit rate : 38 b/s

  134. Count of elements : 1181

  135. Stream size : 27.8 KiB (0%)

  136. Title : ?e?tina (?esko)

  137. Language : Czech

  138. Default : No

  139. Forced : No

  140. Text #7

  141. ID : 9

  142. Format : UTF-8

  143. Codec ID : S_TEXT/UTF8

  144. Codec ID/Info : UTF-8 Plain Text

  145. Duration : 1 h 38 min

  146. Bit rate : 39 b/s

  147. Count of elements : 1172

  148. Stream size : 28.4 KiB (0%)

  149. Title : dansk (Danmark)

  150. Language : Danish

  151. Default : No

  152. Forced : No

  153. Text #8

  154. ID : 10

  155. Format : UTF-8

  156. Codec ID : S_TEXT/UTF8

  157. Codec ID/Info : UTF-8 Plain Text

  158. Duration : 1 h 38 min

  159. Bit rate : 40 b/s

  160. Count of elements : 1146

  161. Stream size : 29.5 KiB (0%)

  162. Title : Deutsch (Deutschland)

  163. Language : German

  164. Default : No

  165. Forced : No

  166. Text #9

  167. ID : 11

  168. Format : UTF-8

  169. Codec ID : S_TEXT/UTF8

  170. Codec ID/Info : UTF-8 Plain Text

  171. Duration : 1 h 38 min

  172. Bit rate : 71 b/s

  173. Count of elements : 1158

  174. Stream size : 51.6 KiB (0%)

  175. Title : Ελληνικ? (Ελλ?δα)

  176. Language : Greek

  177. Default : No

  178. Forced : No

  179. Text #10

  180. ID : 12

  181. Format : UTF-8

  182. Codec ID : S_TEXT/UTF8

  183. Codec ID/Info : UTF-8 Plain Text

  184. Duration : 1 h 38 min

  185. Bit rate : 39 b/s

  186. Count of elements : 1182

  187. Stream size : 28.4 KiB (0%)

  188. Title : espa?ol (Latinoamérica)

  189. Language : Spanish

  190. Default : No

  191. Forced : No

  192. Text #11

  193. ID : 13

  194. Format : UTF-8

  195. Codec ID : S_TEXT/UTF8

  196. Codec ID/Info : UTF-8 Plain Text

  197. Duration : 1 h 38 min

  198. Bit rate : 39 b/s

  199. Count of elements : 1173

  200. Stream size : 28.5 KiB (0%)

  201. Title : espa?ol (Espa?a)

  202. Language : Spanish

  203. Default : No

  204. Forced : No

  205. Text #12

  206. ID : 14

  207. Format : UTF-8

  208. Codec ID : S_TEXT/UTF8

  209. Codec ID/Info : UTF-8 Plain Text

  210. Duration : 1 h 38 min

  211. Bit rate : 36 b/s

  212. Count of elements : 1161

  213. Stream size : 26.3 KiB (0%)

  214. Title : euskara (Espainia)

  215. Language : Basque

  216. Default : No

  217. Forced : No

  218. Text #13

  219. ID : 15

  220. Format : UTF-8

  221. Codec ID : S_TEXT/UTF8

  222. Codec ID/Info : UTF-8 Plain Text

  223. Duration : 1 h 38 min

  224. Bit rate : 36 b/s

  225. Count of elements : 1174

  226. Stream size : 26.3 KiB (0%)

  227. Title : suomi (Suomi)

  228. Language : Finnish

  229. Default : No

  230. Forced : No

  231. Text #14

  232. ID : 16

  233. Format : UTF-8

  234. Codec ID : S_TEXT/UTF8

  235. Codec ID/Info : UTF-8 Plain Text

  236. Duration : 1 h 38 min

  237. Bit rate : 41 b/s

  238. Count of elements : 1134

  239. Stream size : 30.2 KiB (0%)

  240. Title : Filipino (Pilipinas)

  241. Language : fil

  242. Default : No

  243. Forced : No

  244. Text #15

  245. ID : 17

  246. Format : UTF-8

  247. Codec ID : S_TEXT/UTF8

  248. Codec ID/Info : UTF-8 Plain Text

  249. Duration : 1 h 33 min

  250. Bit rate : 45 b/s

  251. Count of elements : 1189

  252. Stream size : 31.3 KiB (0%)

  253. Title : fran?ais (Canada)

  254. Language : French

  255. Default : No

  256. Forced : No

  257. Text #16

  258. ID : 18

  259. Format : UTF-8

  260. Codec ID : S_TEXT/UTF8

  261. Codec ID/Info : UTF-8 Plain Text

  262. Duration : 1 h 38 min

  263. Bit rate : 38 b/s

  264. Count of elements : 1110

  265. Stream size : 27.7 KiB (0%)

  266. Title : fran?ais (France)

  267. Language : French

  268. Default : No

  269. Forced : No

  270. Text #17

  271. ID : 19

  272. Format : UTF-8

  273. Codec ID : S_TEXT/UTF8

  274. Codec ID/Info : UTF-8 Plain Text

  275. Duration : 1 h 38 min

  276. Bit rate : 35 b/s

  277. Count of elements : 1179

  278. Stream size : 25.6 KiB (0%)

  279. Title : galego (Espa?a)

  280. Language : Galician

  281. Default : No

  282. Forced : No

  283. Text #18

  284. ID : 20

  285. Format : UTF-8

  286. Codec ID : S_TEXT/UTF8

  287. Codec ID/Info : UTF-8 Plain Text

  288. Duration : 1 h 38 min

  289. Bit rate : 66 b/s

  290. Count of elements : 1182

  291. Stream size : 48.4 KiB (0%)

  292. Title : ????? (?????)

  293. Language : Hebrew

  294. Default : No

  295. Forced : No

  296. Text #19

  297. ID : 21

  298. Format : UTF-8

  299. Codec ID : S_TEXT/UTF8

  300. Codec ID/Info : UTF-8 Plain Text

  301. Duration : 1 h 38 min

  302. Bit rate : 103 b/s

  303. Count of elements : 1181

  304. Stream size : 74.8 KiB (0%)

  305. Title : ?????? (????)

  306. Language : Hindi

  307. Default : No

  308. Forced : No

  309. Text #20

  310. ID : 22

  311. Format : UTF-8

  312. Codec ID : S_TEXT/UTF8

  313. Codec ID/Info : UTF-8 Plain Text

  314. Duration : 1 h 38 min

  315. Bit rate : 39 b/s

  316. Count of elements : 1086

  317. Stream size : 28.3 KiB (0%)

  318. Title : magyar (Magyarország)

  319. Language : Hungarian

  320. Default : No

  321. Forced : No

  322. Text #21

  323. ID : 23

  324. Format : UTF-8

  325. Codec ID : S_TEXT/UTF8

  326. Codec ID/Info : UTF-8 Plain Text

  327. Duration : 1 h 38 min

  328. Bit rate : 39 b/s

  329. Count of elements : 1183

  330. Stream size : 28.2 KiB (0%)

  331. Title : bahasa Indonesia (Indonesia)

  332. Language : Indonesian

  333. Default : No

  334. Forced : No

  335. Text #22

  336. ID : 24

  337. Format : UTF-8

  338. Codec ID : S_TEXT/UTF8

  339. Codec ID/Info : UTF-8 Plain Text

  340. Duration : 1 h 38 min

  341. Bit rate : 37 b/s

  342. Count of elements : 1178

  343. Stream size : 26.9 KiB (0%)

  344. Title : italiano (Italia)

  345. Language : Italian

  346. Default : No

  347. Forced : No

  348. Text #23

  349. ID : 25

  350. Format : UTF-8

  351. Codec ID : S_TEXT/UTF8

  352. Codec ID/Info : UTF-8 Plain Text

  353. Duration : 1 h 38 min

  354. Bit rate : 34 b/s

  355. Count of elements : 1081

  356. Stream size : 25.0 KiB (0%)

  357. Title : 日本語 (日本)

  358. Language : Japanese

  359. Default : No

  360. Forced : No

  361. Text #24

  362. ID : 26

  363. Format : UTF-8

  364. Codec ID : S_TEXT/UTF8

  365. Codec ID/Info : UTF-8 Plain Text

  366. Duration : 1 h 38 min

  367. Bit rate : 111 b/s

  368. Count of elements : 1171

  369. Stream size : 80.3 KiB (0%)

  370. Title : ????? (????)

  371. Language : Kannada

  372. Default : No

  373. Forced : No

  374. Text #25

  375. ID : 27

  376. Format : UTF-8

  377. Codec ID : S_TEXT/UTF8

  378. Codec ID/Info : UTF-8 Plain Text

  379. Duration : 1 h 38 min

  380. Bit rate : 45 b/s

  381. Count of elements : 1182

  382. Stream size : 32.8 KiB (0%)

  383. Title : ??? (????)

  384. Language : Korean

  385. Default : No

  386. Forced : No

  387. Text #26

  388. ID : 28

  389. Format : UTF-8

  390. Codec ID : S_TEXT/UTF8

  391. Codec ID/Info : UTF-8 Plain Text

  392. Duration : 1 h 38 min

  393. Bit rate : 102 b/s

  394. Count of elements : 1184

  395. Stream size : 74.2 KiB (0%)

  396. Title : ?????? (??????)

  397. Language : Malayalam

  398. Default : No

  399. Forced : No

  400. Text #27

  401. ID : 29

  402. Format : UTF-8

  403. Codec ID : S_TEXT/UTF8

  404. Codec ID/Info : UTF-8 Plain Text

  405. Duration : 1 h 38 min

  406. Bit rate : 37 b/s

  407. Count of elements : 1177

  408. Stream size : 26.9 KiB (0%)

  409. Title : bahasa Malaysia (Malaysia)

  410. Language : Malay

  411. Default : No

  412. Forced : No

  413. Text #28

  414. ID : 30

  415. Format : UTF-8

  416. Codec ID : S_TEXT/UTF8

  417. Codec ID/Info : UTF-8 Plain Text

  418. Duration : 1 h 38 min

  419. Bit rate : 38 b/s

  420. Count of elements : 1179

  421. Stream size : 27.5 KiB (0%)

  422. Title : norsk bokm?l (Norge)

  423. Language : Norwegian Bokmal

  424. Default : No

  425. Forced : No

  426. Text #29

  427. ID : 31

  428. Format : UTF-8

  429. Codec ID : S_TEXT/UTF8

  430. Codec ID/Info : UTF-8 Plain Text

  431. Duration : 1 h 38 min

  432. Bit rate : 37 b/s

  433. Count of elements : 1170

  434. Stream size : 27.4 KiB (0%)

  435. Title : Nederlands (Nederland)

  436. Language : Dutch

  437. Default : No

  438. Forced : No

  439. Text #30

  440. ID : 32

  441. Format : UTF-8

  442. Codec ID : S_TEXT/UTF8

  443. Codec ID/Info : UTF-8 Plain Text

  444. Duration : 1 h 38 min

  445. Bit rate : 33 b/s

  446. Count of elements : 1140

  447. Stream size : 24.3 KiB (0%)

  448. Title : polski (Polska)

  449. Language : Polish

  450. Default : No

  451. Forced : No

  452. Text #31

  453. ID : 33

  454. Format : UTF-8

  455. Codec ID : S_TEXT/UTF8

  456. Codec ID/Info : UTF-8 Plain Text

  457. Duration : 1 h 38 min

  458. Bit rate : 40 b/s

  459. Count of elements : 1181

  460. Stream size : 29.0 KiB (0%)

  461. Title : português (Brasil)

  462. Language : Portuguese

  463. Default : No

  464. Forced : No

  465. Text #32

  466. ID : 34

  467. Format : UTF-8

  468. Codec ID : S_TEXT/UTF8

  469. Codec ID/Info : UTF-8 Plain Text

  470. Duration : 1 h 38 min

  471. Bit rate : 38 b/s

  472. Count of elements : 1156

  473. Stream size : 27.5 KiB (0%)

  474. Title : português (Portugal)

  475. Language : Portuguese

  476. Default : No

  477. Forced : No

  478. Text #33

  479. ID : 35

  480. Format : UTF-8

  481. Codec ID : S_TEXT/UTF8

  482. Codec ID/Info : UTF-8 Plain Text

  483. Duration : 1 h 38 min

  484. Bit rate : 43 b/s

  485. Count of elements : 1172

  486. Stream size : 31.1 KiB (0%)

  487. Title : roman? (Romania)

  488. Language : Romanian

  489. Default : No

  490. Forced : No

  491. Text #34

  492. ID : 36

  493. Format : UTF-8

  494. Codec ID : S_TEXT/UTF8

  495. Codec ID/Info : UTF-8 Plain Text

  496. Duration : 1 h 38 min

  497. Bit rate : 67 b/s

  498. Count of elements : 1184

  499. Stream size : 48.7 KiB (0%)

  500. Title : русский (Россия)

  501. Language : Russian

  502. Default : No

  503. Forced : No

  504. Text #35

  505. ID : 37

  506. Format : UTF-8

  507. Codec ID : S_TEXT/UTF8

  508. Codec ID/Info : UTF-8 Plain Text

  509. Duration : 1 h 38 min

  510. Bit rate : 39 b/s

  511. Count of elements : 1175

  512. Stream size : 28.8 KiB (0%)

  513. Title : svenska (Sverige)

  514. Language : Swedish

  515. Default : No

  516. Forced : No

  517. Text #36

  518. ID : 38

  519. Format : UTF-8

  520. Codec ID : S_TEXT/UTF8

  521. Codec ID/Info : UTF-8 Plain Text

  522. Duration : 1 h 38 min

  523. Bit rate : 106 b/s

  524. Count of elements : 1185

  525. Stream size : 76.8 KiB (0%)

  526. Title : ????? (???????)

  527. Language : Tamil

  528. Default : No

  529. Forced : No

  530. Text #37

  531. ID : 39

  532. Format : UTF-8

  533. Codec ID : S_TEXT/UTF8

  534. Codec ID/Info : UTF-8 Plain Text

  535. Duration : 1 h 38 min

  536. Bit rate : 101 b/s

  537. Count of elements : 1176

  538. Stream size : 73.3 KiB (0%)

  539. Title : ?????? (????????)

  540. Language : Telugu

  541. Default : No

  542. Forced : No

  543. Text #38

  544. ID : 40

  545. Format : UTF-8

  546. Codec ID : S_TEXT/UTF8

  547. Codec ID/Info : UTF-8 Plain Text

  548. Duration : 1 h 38 min

  549. Bit rate : 99 b/s

  550. Count of elements : 1184

  551. Stream size : 71.6 KiB (0%)

  552. Title : ??? (???)

  553. Language : Thai

  554. Default : No

  555. Forced : No

  556. Text #39

  557. ID : 41

  558. Format : UTF-8

  559. Codec ID : S_TEXT/UTF8

  560. Codec ID/Info : UTF-8 Plain Text

  561. Duration : 1 h 38 min

  562. Bit rate : 40 b/s

  563. Count of elements : 1178

  564. Stream size : 28.9 KiB (0%)

  565. Title : Türk?e (Türkiye)

  566. Language : Turkish

  567. Default : No

  568. Forced : No

  569. Text #40

  570. ID : 42

  571. Format : UTF-8

  572. Codec ID : S_TEXT/UTF8

  573. Codec ID/Info : UTF-8 Plain Text

  574. Duration : 1 h 38 min

  575. Bit rate : 66 b/s

  576. Count of elements : 1184

  577. Stream size : 48.3 KiB (0%)

  578. Title : укра?нська (Укра?на)

  579. Language : Ukrainian

  580. Default : No

  581. Forced : No

  582. Text #41

  583. ID : 43

  584. Format : UTF-8

  585. Codec ID : S_TEXT/UTF8

  586. Codec ID/Info : UTF-8 Plain Text

  587. Duration : 1 h 38 min

  588. Bit rate : 49 b/s

  589. Count of elements : 1181

  590. Stream size : 35.9 KiB (0%)

  591. Title : Ti?ng Vi?t (Vi?t Nam)

  592. Language : Vietnamese

  593. Default : No

  594. Forced : No


复制代码




文件下载


除非特别注明,本文『撒玛利亚[简繁英字幕].Samaritan.2022.1080p.AMZN.WEB-DL.H264.DDP5.1-TAGWEB 3.67GB』来源于互联网机器人自动抓取,非本站原创。 浮游电影网不对本文拥有版权,如有侵犯,请联系邮箱:fuyouu#yandex.com[#换成@]投诉。我们会在15个工作日内删除。 但烦请转载时请标明出处:“本文转载于『浮游电影网』,原文地址:https://www.fuyouu.com/22809.html

评论吧骚年!

发表你的见解   

昵称*

E-mail*(建议输入,以便收到博主回复的提示邮件)

验证码*

您可以使用eMule或eMule Mod(Windows)、aMule(Win、Linux、Mac)等软件下载eD2k链接。。
eMule收藏集(.emulecollection)文件是您选中的所有链接的列表文件。eMule可以直接下载它们。
按住SHIFT键选择可以选中多个选择框。
可用文件名和大小选择器来选择文件。
文件名选择器帮您根据文件名称或后缀来选择文件。不分大小写。
符号使用:
和:空格( )、+
不包含:-
或:|
转义:一对英文引号("");
匹配开头:^
匹配结尾:$
例如:
选中所有名称中包含有“eMule”或“0.49c”字眼,但不包含有“exe”字眼的:emule|0.49c -exe
选中所有名称的开头是“eMule”,结尾是“0.49c”的:^emule 0.49c$
选中所有名称中带有“eMule 0.49c”的(必须是“eMule 0.49c”,中间没有别的字符,不能是“eMule fake 0.49c”),需要转义:"emule 0.49c"
大小选择器帮您根据文件大小选择文件。