当前位置: 首页 >> 欧美电影 >> 雷神4:爱与雷霆[IMAX满屏版][简繁英字幕].Thor.Love.and.Thunder.2022.IMAX.DSNP.WEB-DL.2160p.HEVC.HDR.DDP- 10.70GB >> 正文

雷神4:爱与雷霆[IMAX满屏版][简繁英字幕].Thor.Love.and.Thunder.2022.IMAX.DSNP.WEB-DL.2160p.HEVC.HDR.DDP- 10.70GB

2022年09月08日 21:58:46     电影发布:来源于网络     电影分类:欧美电影     评论(0)    

◎标 题 雷神4:爱与雷霆

◎译 名 雷神4 / 雷神奇侠4:爱与雷霆(港) / 雷神索尔:爱与雷霆(台)

◎片 名 Thor: Love and Thunder

◎年 代 2022

◎产 地 美国 / 澳大利亚

◎类 别 动作 / 奇幻 / 冒险

◎语 言 英语

◎上映日期 2022(中国大陆) / 2022-07-06(中国香港) / 2022-07-08(美国)

◎IMDb链接 https://www.imdb.com/title/tt10648342/

◎豆瓣链接 https://movie.douban.com/subject/34477861/

◎片 长 119分钟

◎导 演 塔伊加·维迪提 Taika Waititi

◎编 剧 塔伊加·维迪提 Taika Waititi

詹尼弗·凯廷·罗宾逊 Jennifer Kaytin Robinson

斯坦·李 Stan Lee

◎演 员 克里斯·海姆斯沃斯 Chris Hemsworth

娜塔莉·波特曼 Natalie Portman

克里斯蒂安·贝尔 Christian Bale

泰莎·汤普森 Tessa Thompson

塔伊加·维迪提 Taika Waititi

罗素·克劳 Russell Crowe

杰米·亚历山大 Jaimie Alexander

克里斯·帕拉特 Chris Pratt

戴夫·巴蒂斯塔 Dave Bautista

凯伦·吉兰 Karen Gillan

庞·克莱门捷夫 Pom Klementieff

肖恩·古恩 Sean Gunn

范·迪塞尔 Vin Diesel

布莱德利·库珀 Bradley Cooper

本·法尔科内 Ben Falcone

史蒂芬·库里 Stephen Curry

鲍比·霍兰德·汉顿 Bobby Holland Hanton

戴利·皮尔森 Daley Pearson

西蒙·拉塞尔·比尔 Simon Russell Beale

乔尼·布鲁 Jonny Brugh

布鲁克·斯塔奇威尔 Brooke Satchwell

埃尔莎·帕塔奇 Elsa Pataky

埃莉扎·德苏扎 Eliza D'Souza

卡恩·古尔杜尔 Kaan Guldur

普里西拉·道伊西 Priscilla Doueihy

斯蒂芬·亨特 Stephen Hunter

印第安娜·伊万斯 Indiana Evans

艾娃·卡约菲丽斯 Ava Caryofyllis

本·辛克莱尔 Ben Sinclair

博特·高登斯汀 Brett Goldstein

卢克·海姆斯沃斯 Luke Hemsworth

马特·达蒙 Matt Damon

梅丽莎·麦卡西 Melissa McCarthy

山姆·尼尔 Sam Neill

马克·卡西米尔·戴妮奇斯 Mark Casimir Dyniewicz

凯文·费奇 Kevin Feige

马克·马瑟斯鲍夫 Mark Mothersbaugh

玛耶斯·C·鲁贝奥 Mayes C. Rubeo

◎简 介

影片故事发在在《复仇者联盟4:终局之战》事件之后,雷神索尔(克里斯·海姆斯沃斯 饰)踏上了一段他从未经历过的旅程:找回自我。但索尔的退休计划却被企图消灭众神的屠神者格尔(克里斯蒂安·贝尔 饰)打断,他只好与女武神瓦尔基里(泰莎·汤普森 饰)和寇格(塔伊加·维迪提 饰)再次联手,其间更发现自己八年未见的前女友简·福斯特(娜塔莉·波特曼 饰)获得了雷神之力、挥舞着多年前在自己面前毁灭的雷神之锤,令索尔惊讶不已。他们一起踏上了星际冒险,以揭开格尔的复仇之谜,并在为时已晚之前阻止他。

  1. ##### MediaInfo ######

  2. General

  3. Unique ID : 188374320172823399248055200560695811645 (0x8DB7930BB5F837AAB5E32016AEED1E3D)

  4. Complete name : Thor.Love.and.Thunder.2022.IMAX.Enhanced.DSNP.WEB-DL.4k.HEVC.HDR.DDP-Xiaomi.mkv

  5. Format : Matroska

  6. Format version : Version 4

  7. File size : 10.7 GiB

  8. Duration : 1 h 58 min

  9. Overall bit rate : 12.9 Mb/s

  10. Encoded date : UTC 2022-09-08 07:06:45

  11. Writing application : XthorMerge v11.12.1987 ('ViVENDi Supremacy') 64-bit

  12. Writing library : libebml v1.4.2 + libmatroska v1.6.4

  13. Video

  14. ID : 1

  15. Format : HEVC

  16. Format/Info : High Efficiency Video Coding

  17. Format profile : Main [email protected]@High

  18. HDR format : SMPTE ST 2086, HDR10 compatible

  19. Codec ID : V_MPEGH/ISO/HEVC

  20. Duration : 1 h 58 min

  21. Bit rate : 12.1 Mb/s

  22. Width : 3 840 pixels

  23. Height : 2 160 pixels

  24. Display aspect ratio : 16:9

  25. Frame rate mode : Constant

  26. Frame rate : 23.976 (24000/1001/53354) FPS

  27. Color space : YUV

  28. Chroma subsampling : 4:2:0

  29. Bit depth : 10 bits

  30. Bits/(Pixel*Frame) : 0.061

  31. Stream size : 10.1 GiB (94%)

  32. Default : No

  33. Forced : No

  34. Color range : Limited

  35. Color primaries : BT.2020

  36. Transfer characteristics : PQ

  37. Matrix coefficients : BT.2020 non-constant

  38. Mastering display color primaries : BT.2020

  39. Mastering display luminance : min: 0.0001 cd/m2, max: 1000 cd/m2

  40. Audio

  41. ID : 2

  42. Format : E-AC-3 JOC

  43. Format/Info : Enhanced AC-3 with Joint Object Coding

  44. Commercial name : Dolby Digital Plus with Dolby Atmos

  45. Codec ID : A_EAC3

  46. Duration : 1 h 58 min

  47. Bit rate mode : Constant

  48. Bit rate : 768 kb/s

  49. Channel(s) : 6 channels

  50. Channel layout : L R C LFE Ls Rs

  51. Sampling rate : 48.0 kHz

  52. Frame rate : 31.250 FPS (1536 SPF)

  53. Compression mode : Lossy

  54. Stream size : 652 MiB (6%)

  55. Title : English

  56. Language : English

  57. Service kind : Complete Main

  58. Default : No

  59. Forced : No

  60. Complexity index : 16

  61. Number of dynamic objects : 15

  62. Bed channel count : 1 channel

  63. Bed channel configuration : LFE

  64. Text #1

  65. ID : 3

  66. Format : UTF-8

  67. Codec ID : S_TEXT/UTF8

  68. Codec ID/Info : UTF-8 Plain Text

  69. Duration : 1 h 57 min

  70. Bit rate : 49 b/s

  71. Count of elements : 1607

  72. Stream size : 43.0 KiB (0%)

  73. Title : ?e?tina

  74. Language : Czech

  75. Default : No

  76. Forced : No

  77. Text #2

  78. ID : 4

  79. Format : UTF-8

  80. Codec ID : S_TEXT/UTF8

  81. Codec ID/Info : UTF-8 Plain Text

  82. Duration : 1 h 57 min

  83. Bit rate : 53 b/s

  84. Count of elements : 1601

  85. Stream size : 46.0 KiB (0%)

  86. Title : íslenska

  87. Language : Icelandic

  88. Default : No

  89. Forced : No

  90. Text #3

  91. ID : 5

  92. Format : UTF-8

  93. Codec ID : S_TEXT/UTF8

  94. Codec ID/Info : UTF-8 Plain Text

  95. Duration : 1 h 57 min

  96. Bit rate : 54 b/s

  97. Count of elements : 1609

  98. Stream size : 47.4 KiB (0%)

  99. Title : Türk?e

  100. Language : Turkish

  101. Default : No

  102. Forced : No

  103. Text #4

  104. ID : 6

  105. Format : UTF-8

  106. Codec ID : S_TEXT/UTF8

  107. Codec ID/Info : UTF-8 Plain Text

  108. Duration : 1 h 57 min

  109. Bit rate : 48 b/s

  110. Count of elements : 1166

  111. Stream size : 42.3 KiB (0%)

  112. Title : Svenska

  113. Language : Swedish

  114. Default : No

  115. Forced : No

  116. Text #5

  117. ID : 7

  118. Format : UTF-8

  119. Codec ID : S_TEXT/UTF8

  120. Codec ID/Info : UTF-8 Plain Text

  121. Duration : 1 h 57 min

  122. Bit rate : 56 b/s

  123. Count of elements : 1606

  124. Stream size : 48.9 KiB (0%)

  125. Title : Suomi

  126. Language : Finnish

  127. Default : No

  128. Forced : No

  129. Text #6

  130. ID : 8

  131. Format : UTF-8

  132. Codec ID : S_TEXT/UTF8

  133. Codec ID/Info : UTF-8 Plain Text

  134. Duration : 1 h 57 min

  135. Bit rate : 47 b/s

  136. Count of elements : 1612

  137. Stream size : 41.0 KiB (0%)

  138. Title : Sloven?ina

  139. Language : Slovak

  140. Default : No

  141. Forced : No

  142. Text #7

  143. ID : 9

  144. Format : UTF-8

  145. Codec ID : S_TEXT/UTF8

  146. Codec ID/Info : UTF-8 Plain Text

  147. Duration : 1 h 57 min

  148. Bit rate : 56 b/s

  149. Count of elements : 1492

  150. Stream size : 48.9 KiB (0%)

  151. Title : Roman?

  152. Language : Romanian

  153. Default : No

  154. Forced : No

  155. Text #8

  156. ID : 10

  157. Format : UTF-8

  158. Codec ID : S_TEXT/UTF8

  159. Codec ID/Info : UTF-8 Plain Text

  160. Duration : 1 h 58 min

  161. Bit rate : 60 b/s

  162. Count of elements : 1933

  163. Stream size : 52.8 KiB (0%)

  164. Title : Português (Brasil) [CC]

  165. Language : Portuguese

  166. Default : No

  167. Forced : No

  168. Text #9

  169. ID : 11

  170. Format : UTF-8

  171. Codec ID : S_TEXT/UTF8

  172. Codec ID/Info : UTF-8 Plain Text

  173. Duration : 1 h 57 min

  174. Bit rate : 53 b/s

  175. Count of elements : 1608

  176. Stream size : 46.5 KiB (0%)

  177. Title : Português (Brasil)

  178. Language : Portuguese

  179. Default : No

  180. Forced : No

  181. Text #10

  182. ID : 12

  183. Format : UTF-8

  184. Codec ID : S_TEXT/UTF8

  185. Codec ID/Info : UTF-8 Plain Text

  186. Duration : 1 h 58 min

  187. Bit rate : 54 b/s

  188. Count of elements : 1573

  189. Stream size : 47.1 KiB (0%)

  190. Title : Português

  191. Language : Portuguese

  192. Default : No

  193. Forced : No

  194. Text #11

  195. ID : 13

  196. Format : UTF-8

  197. Codec ID : S_TEXT/UTF8

  198. Codec ID/Info : UTF-8 Plain Text

  199. Duration : 1 h 57 min

  200. Bit rate : 44 b/s

  201. Count of elements : 1610

  202. Stream size : 38.0 KiB (0%)

  203. Title : Polski

  204. Language : Polish

  205. Default : No

  206. Forced : No

  207. Text #12

  208. ID : 14

  209. Format : UTF-8

  210. Codec ID : S_TEXT/UTF8

  211. Codec ID/Info : UTF-8 Plain Text

  212. Duration : 1 h 57 min

  213. Bit rate : 49 b/s

  214. Count of elements : 1612

  215. Stream size : 42.8 KiB (0%)

  216. Title : Norsk

  217. Language : Norwegian

  218. Default : No

  219. Forced : No

  220. Text #13

  221. ID : 15

  222. Format : UTF-8

  223. Codec ID : S_TEXT/UTF8

  224. Codec ID/Info : UTF-8 Plain Text

  225. Duration : 1 h 57 min

  226. Bit rate : 50 b/s

  227. Count of elements : 1388

  228. Stream size : 43.4 KiB (0%)

  229. Title : Nederlands

  230. Language : Dutch

  231. Default : No

  232. Forced : No

  233. Text #14

  234. ID : 16

  235. Format : UTF-8

  236. Codec ID : S_TEXT/UTF8

  237. Codec ID/Info : UTF-8 Plain Text

  238. Duration : 1 h 57 min

  239. Bit rate : 48 b/s

  240. Count of elements : 1611

  241. Stream size : 41.6 KiB (0%)

  242. Title : Magyar

  243. Language : Hungarian

  244. Default : No

  245. Forced : No

  246. Text #15

  247. ID : 17

  248. Format : UTF-8

  249. Codec ID : S_TEXT/UTF8

  250. Codec ID/Info : UTF-8 Plain Text

  251. Duration : 1 h 57 min

  252. Bit rate : 52 b/s

  253. Count of elements : 1603

  254. Stream size : 45.6 KiB (0%)

  255. Title : Korean

  256. Language : Korean

  257. Default : No

  258. Forced : No

  259. Text #16

  260. ID : 18

  261. Format : UTF-8

  262. Codec ID : S_TEXT/UTF8

  263. Codec ID/Info : UTF-8 Plain Text

  264. Duration : 1 h 57 min

  265. Bit rate : 47 b/s

  266. Count of elements : 1554

  267. Stream size : 40.9 KiB (0%)

  268. Title : Japanese

  269. Language : Japanese

  270. Default : No

  271. Forced : No

  272. Text #17

  273. ID : 19

  274. Format : UTF-8

  275. Codec ID : S_TEXT/UTF8

  276. Codec ID/Info : UTF-8 Plain Text

  277. Duration : 1 h 57 min

  278. Bit rate : 58 b/s

  279. Count of elements : 1607

  280. Stream size : 50.2 KiB (0%)

  281. Title : Italiano

  282. Language : Italian

  283. Default : No

  284. Forced : No

  285. Text #18

  286. ID : 20

  287. Format : UTF-8

  288. Codec ID : S_TEXT/UTF8

  289. Codec ID/Info : UTF-8 Plain Text

  290. Duration : 1 h 57 min

  291. Bit rate : 90 b/s

  292. Count of elements : 1602

  293. Stream size : 78.0 KiB (0%)

  294. Title : Greek

  295. Language : Greek

  296. Default : No

  297. Forced : No

  298. Text #19

  299. ID : 21

  300. Format : UTF-8

  301. Codec ID : S_TEXT/UTF8

  302. Codec ID/Info : UTF-8 Plain Text

  303. Duration : 1 h 58 min

  304. Bit rate : 59 b/s

  305. Count of elements : 1734

  306. Stream size : 51.8 KiB (0%)

  307. Title : Fran?ais [CC]

  308. Language : French

  309. Default : No

  310. Forced : No

  311. Text #20

  312. ID : 22

  313. Format : UTF-8

  314. Codec ID : S_TEXT/UTF8

  315. Codec ID/Info : UTF-8 Plain Text

  316. Duration : 1 h 58 min

  317. Bit rate : 79 b/s

  318. Count of elements : 2327

  319. Stream size : 69.2 KiB (0%)

  320. Title : Fran?ais (Canadien) [CC]

  321. Language : French

  322. Default : No

  323. Forced : No

  324. Text #21

  325. ID : 23

  326. Format : UTF-8

  327. Codec ID : S_TEXT/UTF8

  328. Codec ID/Info : UTF-8 Plain Text

  329. Duration : 1 h 57 min

  330. Bit rate : 58 b/s

  331. Count of elements : 1610

  332. Stream size : 50.6 KiB (0%)

  333. Title : Fran?ais (Canadien)

  334. Language : French

  335. Default : No

  336. Forced : No

  337. Text #22

  338. ID : 24

  339. Format : UTF-8

  340. Codec ID : S_TEXT/UTF8

  341. Codec ID/Info : UTF-8 Plain Text

  342. Duration : 1 h 57 min

  343. Bit rate : 46 b/s

  344. Count of elements : 1504

  345. Stream size : 40.2 KiB (0%)

  346. Title : Fran?ais

  347. Language : French

  348. Default : No

  349. Forced : No

  350. Text #23

  351. ID : 25

  352. Format : UTF-8

  353. Codec ID : S_TEXT/UTF8

  354. Codec ID/Info : UTF-8 Plain Text

  355. Duration : 1 h 57 min

  356. Bit rate : 64 b/s

  357. Count of elements : 1611

  358. Stream size : 55.5 KiB (0%)

  359. Title : Espa?ol (Latinoamericano) [CC]

  360. Language : Spanish

  361. Default : No

  362. Forced : No

  363. Text #24

  364. ID : 26

  365. Format : UTF-8

  366. Codec ID : S_TEXT/UTF8

  367. Codec ID/Info : UTF-8 Plain Text

  368. Duration : 1 h 57 min

  369. Bit rate : 56 b/s

  370. Count of elements : 1613

  371. Stream size : 48.9 KiB (0%)

  372. Title : Espa?ol (Latinoamericano)

  373. Language : Spanish

  374. Default : No

  375. Forced : No

  376. Text #25

  377. ID : 27

  378. Format : UTF-8

  379. Codec ID : S_TEXT/UTF8

  380. Codec ID/Info : UTF-8 Plain Text

  381. Duration : 1 h 57 min

  382. Bit rate : 50 b/s

  383. Count of elements : 1603

  384. Stream size : 44.0 KiB (0%)

  385. Title : Espa?ol

  386. Language : Spanish

  387. Default : No

  388. Forced : No

  389. Text #26

  390. ID : 28

  391. Format : UTF-8

  392. Codec ID : S_TEXT/UTF8

  393. Codec ID/Info : UTF-8 Plain Text

  394. Duration : 1 h 58 min

  395. Bit rate : 70 b/s

  396. Count of elements : 2281

  397. Stream size : 61.2 KiB (0%)

  398. Title : English [CC]

  399. Language : English

  400. Default : No

  401. Forced : No

  402. Text #27

  403. ID : 29

  404. Format : UTF-8

  405. Codec ID : S_TEXT/UTF8

  406. Codec ID/Info : UTF-8 Plain Text

  407. Duration : 1 h 58 min

  408. Bit rate : 69 b/s

  409. Count of elements : 1678

  410. Stream size : 60.0 KiB (0%)

  411. Title : Deutsch [CC]

  412. Language : German

  413. Default : No

  414. Forced : No

  415. Text #28

  416. ID : 30

  417. Format : UTF-8

  418. Codec ID : S_TEXT/UTF8

  419. Codec ID/Info : UTF-8 Plain Text

  420. Duration : 1 h 57 min

  421. Bit rate : 48 b/s

  422. Count of elements : 1472

  423. Stream size : 41.7 KiB (0%)

  424. Title : Deutsch

  425. Language : German

  426. Default : No

  427. Forced : No

  428. Text #29

  429. ID : 31

  430. Format : UTF-8

  431. Codec ID : S_TEXT/UTF8

  432. Codec ID/Info : UTF-8 Plain Text

  433. Duration : 1 h 57 min

  434. Bit rate : 45 b/s

  435. Count of elements : 990

  436. Stream size : 39.5 KiB (0%)

  437. Title : Dansk

  438. Language : Danish

  439. Default : No

  440. Forced : No

  441. Text #30

  442. ID : 32

  443. Format : UTF-8

  444. Codec ID : S_TEXT/UTF8

  445. Codec ID/Info : UTF-8 Plain Text

  446. Duration : 1 h 57 min

  447. Bit rate : 42 b/s

  448. Count of elements : 1627

  449. Stream size : 37.0 KiB (0%)

  450. Title : Chinese (Traditional)

  451. Language : Chinese

  452. Default : No

  453. Forced : No

  454. Text #31

  455. ID : 33

  456. Format : UTF-8

  457. Codec ID : S_TEXT/UTF8

  458. Codec ID/Info : UTF-8 Plain Text

  459. Duration : 1 h 57 min

  460. Bit rate : 50 b/s

  461. Count of elements : 1616

  462. Stream size : 43.7 KiB (0%)

  463. Title : Chinese (Simplified)

  464. Language : Chinese

  465. Default : No

  466. Forced : No

  467. Text #32

  468. ID : 34

  469. Format : UTF-8

  470. Codec ID : S_TEXT/UTF8

  471. Codec ID/Info : UTF-8 Plain Text

  472. Duration : 1 h 57 min

  473. Bit rate : 42 b/s

  474. Count of elements : 1616

  475. Stream size : 37.0 KiB (0%)

  476. Title : Chinese (Hong Kong)

  477. Language : Chinese

  478. Default : No

  479. Forced : No


复制代码



文件下载


除非特别注明,本文『雷神4:爱与雷霆[IMAX满屏版][简繁英字幕].Thor.Love.and.Thunder.2022.IMAX.DSNP.WEB-DL.2160p.HEVC.HDR.DDP- 10.70GB』来源于互联网机器人自动抓取,非本站原创。 浮游电影网不对本文拥有版权,如有侵犯,请联系邮箱:fuyouu#yandex.com[#换成@]投诉。我们会在15个工作日内删除。 但烦请转载时请标明出处:“本文转载于『浮游电影网』,原文地址:https://www.fuyouu.com/22808.html

评论吧骚年!

发表你的见解   

昵称*

E-mail*(建议输入,以便收到博主回复的提示邮件)

验证码*

您可以使用eMule或eMule Mod(Windows)、aMule(Win、Linux、Mac)等软件下载eD2k链接。。
eMule收藏集(.emulecollection)文件是您选中的所有链接的列表文件。eMule可以直接下载它们。
按住SHIFT键选择可以选中多个选择框。
可用文件名和大小选择器来选择文件。
文件名选择器帮您根据文件名称或后缀来选择文件。不分大小写。
符号使用:
和:空格( )、+
不包含:-
或:|
转义:一对英文引号("");
匹配开头:^
匹配结尾:$
例如:
选中所有名称中包含有“eMule”或“0.49c”字眼,但不包含有“exe”字眼的:emule|0.49c -exe
选中所有名称的开头是“eMule”,结尾是“0.49c”的:^emule 0.49c$
选中所有名称中带有“eMule 0.49c”的(必须是“eMule 0.49c”,中间没有别的字符,不能是“eMule fake 0.49c”),需要转义:"emule 0.49c"
大小选择器帮您根据文件大小选择文件。