当前位置: 首页 >> 国产电影 >> 奉天白事铺[国语配音/中文字幕].Feng.Tian.Bai.Shi.Pu.2022.2160p.WEB-DL.H265.AAC-MOMOWEB 2.28GB >> 正文

奉天白事铺[国语配音/中文字幕].Feng.Tian.Bai.Shi.Pu.2022.2160p.WEB-DL.H265.AAC-MOMOWEB 2.28GB

2022年09月03日 11:46:31     电影发布:来源于网络     电影分类:国产电影     评论(0)    

◎标 题 奉天白事铺

◎年 代 2022

◎产 地 中国大陆

◎类 别 悬疑 / 惊悚

◎语 言 汉语普通话

◎上映日期 2022-09-02(中国大陆)

◎IMDb链接 https://www.imdb.com/title//

◎豆瓣链接 https://movie.douban.com/subject/36075494/

◎片 长 70分钟

◎导 演 张博 Bo Zhang

◎演 员 刘智扬 Zhiyang Liu

张子健 Zijian Zhang

姬晨牧 Chenmu Ji

王奎荣 Kuirong Wang

◎简 介

民国年间,时值中元节,太平县昏暗的戏楼正上演着一场给“阴山鬼王的阴戏”。恰逢警察局局长方敬儒(张子健 饰)大寿,局长儿子派人搅乱了戏班子,强占戏院为其父贺寿,正当所有人沉浸在喜悦的气氛中时,一个熊熊燃烧的活人从戏台上空而降,像极了中元节鬼王被烧的场景,与此同时,台下的纸人和鬼王牌位竟也瞬间燃起,人们纷传是其惹怒了鬼王。方敬儒盛怒之下开始调查此事,奉天白事铺掌柜许四九(刘智扬 饰)也被迫卷入其中。随着案情深入,故事主人公许四九见证了一桩桩悲剧,也终于找到了背后的答案……

  1. ##### MediaInfo ######

  2. General

  3. Unique ID : 87229761515412222920811641614971011676 (0x419FD74A19A533C1F63D53A85365825C)

  4. Complete name : Feng.Tian.Bai.Shi.Pu.2022.2160p.WEB-DL.H265.AAC-MOMOWEB.mkv

  5. Format : Matroska

  6. Format version : Version 4

  7. File size : 2.28 GiB

  8. Duration : 1 h 8 min

  9. Overall bit rate : 4 786 kb/s

  10. Encoded date : UTC 2022-09-02 08:07:05

  11. Writing application : mkvmerge v58.0.0 ('Supper's Ready') 64-bit

  12. Writing library : libebml v1.4.2 + libmatroska v1.6.4

  13. Video

  14. ID : 1

  15. Format : HEVC

  16. Format/Info : High Efficiency Video Coding

  17. Format profile : [email protected]@Main

  18. Codec ID : V_MPEGH/ISO/HEVC

  19. Duration : 1 h 8 min

  20. Bit rate : 4 598 kb/s

  21. Width : 3 840 pixels

  22. Height : 1 576 pixels

  23. Display aspect ratio : 2.40:1

  24. Frame rate mode : Variable

  25. Frame rate : 23.919 FPS

  26. Original frame rate : 24.000 FPS

  27. Color space : YUV

  28. Chroma subsampling : 4:2:0

  29. Bit depth : 8 bits

  30. Bits/(Pixel*Frame) : 0.032

  31. Stream size : 2.19 GiB (96%)

  32. Language : Chinese

  33. Default : Yes

  34. Forced : No

  35. Audio

  36. ID : 2

  37. Format : AAC LC

  38. Format/Info : Advanced Audio Codec Low Complexity

  39. Codec ID : A_AAC-2

  40. Duration : 1 h 8 min

  41. Bit rate : 185 kb/s

  42. Channel(s) : 2 channels

  43. Channel layout : L R

  44. Sampling rate : 44.1 kHz

  45. Frame rate : 43.066 FPS (1024 SPF)

  46. Compression mode : Lossy

  47. Stream size : 90.5 MiB (4%)

  48. Language : Chinese

  49. Default : Yes

  50. Forced : No


复制代码



文件下载


除非特别注明,本文『奉天白事铺[国语配音/中文字幕].Feng.Tian.Bai.Shi.Pu.2022.2160p.WEB-DL.H265.AAC-MOMOWEB 2.28GB』来源于互联网机器人自动抓取,非本站原创。 浮游电影网不对本文拥有版权,如有侵犯,请联系邮箱:fuyouu#yandex.com[#换成@]投诉。我们会在15个工作日内删除。 但烦请转载时请标明出处:“本文转载于『浮游电影网』,原文地址:https://www.fuyouu.com/22805.html

评论吧骚年!

发表你的见解   

昵称*

E-mail*(建议输入,以便收到博主回复的提示邮件)

验证码*

您可以使用eMule或eMule Mod(Windows)、aMule(Win、Linux、Mac)等软件下载eD2k链接。。
eMule收藏集(.emulecollection)文件是您选中的所有链接的列表文件。eMule可以直接下载它们。
按住SHIFT键选择可以选中多个选择框。
可用文件名和大小选择器来选择文件。
文件名选择器帮您根据文件名称或后缀来选择文件。不分大小写。
符号使用:
和:空格( )、+
不包含:-
或:|
转义:一对英文引号("");
匹配开头:^
匹配结尾:$
例如:
选中所有名称中包含有“eMule”或“0.49c”字眼,但不包含有“exe”字眼的:emule|0.49c -exe
选中所有名称的开头是“eMule”,结尾是“0.49c”的:^emule 0.49c$
选中所有名称中带有“eMule 0.49c”的(必须是“eMule 0.49c”,中间没有别的字符,不能是“eMule fake 0.49c”),需要转义:"emule 0.49c"
大小选择器帮您根据文件大小选择文件。