当前位置: 首页 >> 欧美电影 >> 爱在度假屋[简繁英字幕].Love.in.the.Villa.2022.1080p.NF.WEB-DL.DDP5.1.Atmos.x264-MOMOWEB 3.73GB >> 正文

爱在度假屋[简繁英字幕].Love.in.the.Villa.2022.1080p.NF.WEB-DL.DDP5.1.Atmos.x264-MOMOWEB 3.73GB

2022年09月03日 11:44:59     电影发布:来源于网络     电影分类:欧美电影     评论(0)    

◎标 题 爱在度假屋

◎片 名 Love in the Villa

◎年 代 2022

◎产 地 美国

◎类 别 喜剧 / 爱情

◎语 言 英语

◎上映日期 2022-09-01(美国网络)

◎IMDb链接 https://www.imdb.com/title/tt15463032/

◎豆瓣链接 https://movie.douban.com/subject/35924879/

◎片 长 116 分钟

◎导 演 马克·斯蒂文·约翰逊 Mark Steven Johnson

◎编 剧 马克·斯蒂文·约翰逊 Mark Steven Johnson

◎演 员 汤姆·霍珀 Tom Hopper

卡特琳娜·格兰厄姆 Katerina Graham

Laura Higgins Laura Higgins

埃莱娜·卡多纳 Hélène Cardona

凯蒂·麦戈文 Katie McGovern

彼得·阿佩塞拉 Peter Arpesella

肖恩·阿姆辛 Sean Amsing

Emilio Solfrizzi Emilio Solfrizzi

◎简 介

一名年轻女子(卡特·格兰厄姆饰)在分手后前往浪漫的意大利维罗纳散心,结果发现自己预订的别墅同时也被别人订了,于是她不得不和一名愤世嫉俗(且相貌英俊)的英国男子(汤姆·霍珀饰)共度假期。

  1. ##### MediaInfo ######

  2. General

  3. Unique ID : 198133566226004504972074602165825696571 (0x950F230685FE483D0C1099EAF833F33B)

  4. Complete name : 爱在度假屋.Love.in.the.Villa.2022.1080p.NF.WEB-DL.DDP5.1.Atmos.x264-MOMOWEB.mkv

  5. Format : Matroska

  6. Format version : Version 4

  7. File size : 3.72 GiB

  8. Duration : 1 h 55 min

  9. Overall bit rate mode : Variable

  10. Overall bit rate : 4 597 kb/s

  11. Movie name : 爱在度假屋

  12. Encoded date : UTC 2022-09-01 16:01:08

  13. Writing application : mkvmerge v59.0.0 ('Shining Star') 64-bit

  14. Writing library : libebml v1.4.2 + libmatroska v1.6.4

  15. Video

  16. ID : 1

  17. Format : AVC

  18. Format/Info : Advanced Video Codec

  19. Format profile : [email protected]

  20. Format settings : CABAC / 4 Ref Frames

  21. Format settings, CABAC : Yes

  22. Format settings, Reference frames : 4 frames

  23. Codec ID : V_MPEG4/ISO/AVC

  24. Duration : 1 h 55 min

  25. Bit rate mode : Variable

  26. Bit rate : 3 826 kb/s

  27. Maximum bit rate : 20.0 Mb/s

  28. Width : 1 920 pixels

  29. Height : 1 080 pixels

  30. Display aspect ratio : 16:9

  31. Frame rate mode : Constant

  32. Frame rate : 24.000 FPS

  33. Color space : YUV

  34. Chroma subsampling : 4:2:0

  35. Bit depth : 8 bits

  36. Scan type : Progressive

  37. Bits/(Pixel*Frame) : 0.077

  38. Stream size : 3.10 GiB (83%)

  39. Writing library : x264 core 148 r2727 7d026e8

  40. Encoding settings : cabac=1 / ref=4 / deblock=1:0:0 / analyse=0x3:0x111 / me=umh / subme=10 / psy=1 / psy_rd=1.00:0.00 / mixed_ref=1 / me_range=120 / chroma_me=1 / trellis=2 / 8x8dct=1 / cqm=0 / deadzone=21,11 / fast_pskip=1 / chroma_qp_offset=-2 / threads=8 / lookahead_threads=2 / sliced_threads=0 / nr=0 / decimate=1 / interlaced=0 / NTMzNTQ= / bluray_compat=0 / stitchable=1 / constrained_intra=0 / bframes=16 / b_pyramid=2 / b_adapt=2 / b_bias=0 / direct=3 / weightb=1 / open_gop=0 / weightp=2 / keyint=240 / keyint_min=121 / scenecut=0 / intra_refresh=0 / rc_lookahead=240 / rc=crf / mbtree=1 / crf=16.0 / qcomp=0.50 / qpmin=6 / qpmax=51 / qpstep=4 / vbv_maxrate=20000 / vbv_bufsize=25000 / crf_max=0.0 / nal_hrd=vbr / filler=0 / NTMzNTQ=LmsMAP37EqsCpk / ip_ratio=1.40 / aq=1:0.80

  41. Default : Yes

  42. Forced : No

  43. Audio

  44. ID : 2

  45. Format : E-AC-3 JOC

  46. Format/Info : Enhanced AC-3 with Joint Object Coding

  47. Commercial name : Dolby Digital Plus with Dolby Atmos

  48. Codec ID : A_EAC3

  49. Duration : 1 h 55 min

  50. Bit rate mode : Constant

  51. Bit rate : 768 kb/s

  52. Channel(s) : 6 channels

  53. Channel layout : L R C LFE Ls Rs

  54. Sampling rate : 48.0 kHz

  55. Frame rate : 31.250 FPS (1536 SPF)

  56. Bit depth : 32 bits

  57. Compression mode : Lossy

  58. Stream size : 637 MiB (17%)

  59. Title : 英语 [原始]

  60. Language : English

  61. Service kind : Complete Main

  62. Default : Yes

  63. Forced : No

  64. Complexity index : 16

  65. Number of dynamic objects : 15

  66. Bed channel count : 1 channel

  67. Bed channel configuration : LFE

  68. Text #1

  69. ID : 3

  70. Format : UTF-8

  71. Codec ID : S_TEXT/UTF8

  72. Codec ID/Info : UTF-8 Plain Text

  73. Duration : 1 h 53 min

  74. Bit rate : 51 b/s

  75. Count of elements : 1550

  76. Stream size : 42.6 KiB (0%)

  77. Title : 德文

  78. Language : German

  79. Default : Yes

  80. Forced : No

  81. Text #2

  82. ID : 4

  83. Format : UTF-8

  84. Codec ID : S_TEXT/UTF8

  85. Codec ID/Info : UTF-8 Plain Text

  86. Duration : 1 h 51 min

  87. Bit rate : 75 b/s

  88. Count of elements : 2184

  89. Stream size : 61.9 KiB (0%)

  90. Title : 英语 [CC]

  91. Language : English

  92. Default : No

  93. Forced : No

  94. Text #3

  95. ID : 5

  96. Format : UTF-8

  97. Codec ID : S_TEXT/UTF8

  98. Codec ID/Info : UTF-8 Plain Text

  99. Duration : 1 h 53 min

  100. Bit rate : 48 b/s

  101. Count of elements : 1492

  102. Stream size : 40.2 KiB (0%)

  103. Title : 西班牙语

  104. Language : Spanish

  105. Default : No

  106. Forced : No

  107. Text #4

  108. ID : 6

  109. Format : UTF-8

  110. Codec ID : S_TEXT/UTF8

  111. Codec ID/Info : UTF-8 Plain Text

  112. Duration : 1 h 53 min

  113. Bit rate : 51 b/s

  114. Count of elements : 1483

  115. Stream size : 42.8 KiB (0%)

  116. Title : 法语

  117. Language : French

  118. Default : No

  119. Forced : No

  120. Text #5

  121. ID : 7

  122. Format : UTF-8

  123. Codec ID : S_TEXT/UTF8

  124. Codec ID/Info : UTF-8 Plain Text

  125. Duration : 1 h 53 min

  126. Bit rate : 46 b/s

  127. Count of elements : 1522

  128. Stream size : 38.6 KiB (0%)

  129. Title : 意大利语

  130. Language : Italian

  131. Default : No

  132. Forced : No

  133. Text #6

  134. ID : 8

  135. Format : UTF-8

  136. Codec ID : S_TEXT/UTF8

  137. Codec ID/Info : UTF-8 Plain Text

  138. Duration : 1 h 53 min

  139. Bit rate : 49 b/s

  140. Count of elements : 1714

  141. Stream size : 41.6 KiB (0%)

  142. Title : 日语

  143. Language : Japanese

  144. Default : No

  145. Forced : No

  146. Text #7

  147. ID : 9

  148. Format : UTF-8

  149. Codec ID : S_TEXT/UTF8

  150. Codec ID/Info : UTF-8 Plain Text

  151. Duration : 1 h 53 min

  152. Bit rate : 58 b/s

  153. Count of elements : 1640

  154. Stream size : 49.1 KiB (0%)

  155. Title : 韩文

  156. Language : Korean

  157. Default : No

  158. Forced : No

  159. Text #8

  160. ID : 10

  161. Format : UTF-8

  162. Codec ID : S_TEXT/UTF8

  163. Codec ID/Info : UTF-8 Plain Text

  164. Duration : 1 h 53 min

  165. Bit rate : 48 b/s

  166. Count of elements : 1613

  167. Stream size : 40.6 KiB (0%)

  168. Title : 葡萄牙语

  169. Language : Portuguese

  170. Default : No

  171. Forced : No

  172. Text #9

  173. ID : 11

  174. Format : UTF-8

  175. Codec ID : S_TEXT/UTF8

  176. Codec ID/Info : UTF-8 Plain Text

  177. Duration : 1 h 53 min

  178. Bit rate : 80 b/s

  179. Count of elements : 1560

  180. Stream size : 66.8 KiB (0%)

  181. Title : 俄文

  182. Language : Russian

  183. Default : No

  184. Forced : No

  185. Text #10

  186. ID : 12

  187. Format : UTF-8

  188. Codec ID : S_TEXT/UTF8

  189. Codec ID/Info : UTF-8 Plain Text

  190. Duration : 1 h 53 min

  191. Bit rate : 45 b/s

  192. Count of elements : 1638

  193. Stream size : 38.3 KiB (0%)

  194. Title : 简体中文

  195. Language : Chinese

  196. Default : No

  197. Forced : No

  198. Text #11

  199. ID : 13

  200. Format : UTF-8

  201. Codec ID : S_TEXT/UTF8

  202. Codec ID/Info : UTF-8 Plain Text

  203. Duration : 1 h 53 min

  204. Bit rate : 44 b/s

  205. Count of elements : 1616

  206. Stream size : 37.4 KiB (0%)

  207. Title : 繁体中文

  208. Language : Chinese

  209. Default : No

  210. Forced : No


复制代码



文件下载


除非特别注明,本文『爱在度假屋[简繁英字幕].Love.in.the.Villa.2022.1080p.NF.WEB-DL.DDP5.1.Atmos.x264-MOMOWEB 3.73GB』来源于互联网机器人自动抓取,非本站原创。 浮游电影网不对本文拥有版权,如有侵犯,请联系邮箱:fuyouu#yandex.com[#换成@]投诉。我们会在15个工作日内删除。 但烦请转载时请标明出处:“本文转载于『浮游电影网』,原文地址:https://www.fuyouu.com/22804.html

评论吧骚年!

发表你的见解   

昵称*

E-mail*(建议输入,以便收到博主回复的提示邮件)

验证码*

您可以使用eMule或eMule Mod(Windows)、aMule(Win、Linux、Mac)等软件下载eD2k链接。。
eMule收藏集(.emulecollection)文件是您选中的所有链接的列表文件。eMule可以直接下载它们。
按住SHIFT键选择可以选中多个选择框。
可用文件名和大小选择器来选择文件。
文件名选择器帮您根据文件名称或后缀来选择文件。不分大小写。
符号使用:
和:空格( )、+
不包含:-
或:|
转义:一对英文引号("");
匹配开头:^
匹配结尾:$
例如:
选中所有名称中包含有“eMule”或“0.49c”字眼,但不包含有“exe”字眼的:emule|0.49c -exe
选中所有名称的开头是“eMule”,结尾是“0.49c”的:^emule 0.49c$
选中所有名称中带有“eMule 0.49c”的(必须是“eMule 0.49c”,中间没有别的字符,不能是“eMule fake 0.49c”),需要转义:"emule 0.49c"
大小选择器帮您根据文件大小选择文件。