当前位置: 首页 >> 欧美电影 >> 赤焰战场[共2部合集][简繁英字幕].RED.1-2.2010-2013.UHD.BluRay.2160p.TrueHD.Atmos.7.1.x265.10bit.HDR-ALT 50.81GB >> 正文

赤焰战场[共2部合集][简繁英字幕].RED.1-2.2010-2013.UHD.BluRay.2160p.TrueHD.Atmos.7.1.x265.10bit.HDR-ALT 50.81GB

2022年09月02日 10:28:20     电影发布:来源于网络     电影分类:欧美电影     评论(0)    

◎标 题 赤焰战场

◎译 名 猛火爆(港) / 超危险特工(台) / 红色危机 / 夕阳红别动队

◎片 名 Red

◎年 代 2010

◎产 地 美国 / 中国大陆

◎类 别 喜剧 / 动作 / 惊悚 / 犯罪

◎语 言 英语 / 俄语

◎上映日期 2011-04-01(中国大陆) / 2010-10-15(美国)

◎IMDb评分 7/10 (300215人评价)

◎IMDb链接 https://www.imdb.com/title/tt1245526/

◎豆瓣评分 7.6/10 (95366人评价)

◎豆瓣链接 https://movie.douban.com/subject/3104794/

◎片 长 111分钟(美国)

◎导 演 罗伯特·斯文克 Robert Schwentke

◎编 剧 乔·霍贝尔 Jon Hoeber

埃里希·霍贝尔 Erich Hoeber

沃伦·埃利斯 Warren Ellis

库里·哈米尔 Cully Hamner

◎演 员 布鲁斯·威利斯 Bruce Willis

约翰·马尔科维奇 John Malkovich

玛丽-露易丝·帕克 Mary-Louise Parker

卡尔·厄本 Karl Urban

海伦·米伦 Helen Mirren

摩根·弗里曼 Morgan Freeman

海迪·冯·帕利斯克 Heidi von Palleske

杰斐逊·布朗 Jefferson Brown

克里斯·欧文斯 Chris Owens

丽贝卡·彼得根 Rebecca Pidgeon

贾克琳·弗莱明 Jaqueline Fleming

Jason Giuliano Jason Giuliano

劳伦斯·特纳 Lawrence Turner

乔·克里斯特 Joe Chrest

贾斯婷·瓦希伯格 Justine Wachsberger

塔拉·尤伦 Tara Yelland

欧内斯特·博格宁 Ernest Borgnine

奥德丽·瓦西莱夫斯基 Audrey Wasilewski

詹姆斯·瑞马尔 James Remar

迪米特里·柴波维特斯基 Dmitry Chepovetsky

布莱恩·考克斯 Brian Cox

格雷格·布瑞克 Greg Bryk

理查德·德莱福斯 Richard Dreyfuss

尼尔·怀特利 Neil Whitely

罗伯特·莫尔斯 Robert Morse

米歇尔·诺尔顿 Michelle Nolden

劳拉·德卡特莱特 Laura de Carteret

乔纳森·沃克 Jonathan Walker

朱利安·麦克马洪 Julian McMahon

托马斯·米切尔 Thomas Mitchell

罗布·阿切尔 Rob Archer

约瑟夫·辛特隆 Joseph Cintron

凯文·肯特 Kevin Kent

詹姆斯昂·克雷默 Jameson Kraemer

劳丽·李 Laurie Lee

泰德·麦克马洪 Tadhg McMahon

里奇·蒙哥马利 Ritchie Montgomery

B.J. Parker

Dan Shea Dan Shea

Logan Douglas Smith

特里·李·史密斯 Terry Lee Smith

◎标 签 动作 / 美国 / BruceWillis / 喜剧 / 美国电影 / MorganFreeman / 2010 / 漫画改编

◎简 介

前特工人员弗兰克·摩西斯(布鲁斯·威利斯 Bruce Willis 饰)早年和同伴们金戈铁马,经历大风大浪,如今早已各自闲赋家中,过着优哉游哉的安逸生活。然而这份退休后的平静突然被打破,在圣诞前夜,一群全副武装的不速之客闯入弗兰克的家中,对其痛下杀手。原来,作为资深探员,弗兰克和他的同伴知道太多关于政府和军方的秘密,他们理所当然成为被抹杀的对象。不甘将命运交诸他人之手,弗兰克找到了乔·麦瑟森(摩根·弗里曼 Morgan Freeman 饰)、马文·博格斯(约翰•马尔科维奇 John Malkovich 饰)和维多利娅(海伦·米伦 Helen Mirren 饰)等当年的好搭档,决心展开一场绝地大反击……

本片根据华伦·埃利斯(Warren Ellis)和库里·汉默(Cully Hamner)的漫画改编。

  1. 合集文件列表:

  2. 1.RED.2.2013.UHD.BluRay.2160p.TrueHD.Atmos.7.1.x265.10bit.HDR-ALT.mkv 26.60GB

  3. 2.RED.2010.UHD.BluRay.2160p.TrueHD.Atmos.7.1.x265.10bit.HDR-ALT.mkv 24.21GB


复制代码

  1. ##### MediaInfo ######

  2. General

  3. Unique ID : 95555106351878737331270871785143091548 (0x47E33E7B1FACC2740DB96880340D415C)

  4. Complete name : RED.2.2013.UHD.BluRay.2160p.TrueHD.Atmos.7.1.x265.10bit.HDR-ALT.mkv

  5. Format : Matroska

  6. Format version : Version 4

  7. File size : 26.6 GiB

  8. Duration : 1 h 55 min

  9. Overall bit rate mode : Variable

  10. Overall bit rate : 32.9 Mb/s

  11. Encoded date : UTC 2020-11-06 12:49:57

  12. Writing application : mkvmerge v49.0.0 ('Sick Of Losing Soulmates') 64-bit

  13. Writing library : libebml v1.4.0 + libmatroska v1.6.1

  14. Video

  15. ID : 1

  16. Format : HEVC

  17. Format/Info : High Efficiency Video Coding

  18. Format profile : Main [email protected]@High

  19. HDR format : SMPTE ST 2086, HDR10 compatible

  20. Codec ID : V_MPEGH/ISO/HEVC

  21. Duration : 1 h 55 min

  22. Bit rate : 27.5 Mb/s

  23. Width : 3 840 pixels

  24. Height : 1 606 pixels

  25. Display aspect ratio : 2.40:1

  26. Frame rate mode : Constant

  27. Frame rate : 23.976 (24000/1001/53354) FPS

  28. Color space : YUV

  29. Chroma subsampling : 4:2:0 (Type 2)

  30. Bit depth : 10 bits

  31. Bits/(Pixel*Frame) : 0.186

  32. Stream size : 22.2 GiB (83%)

  33. Title : HEVC, [email protected]@High, 24/1.001 fps @ 27452 kbps

  34. Writing library : x265 3.4+14-gd419c7152:[Windows][GCC 10.2.0][64 bit] 10bit

  35. Encoding settings : cpuid=533541111039 / frame-threads=5 / numa-pools=44,44 / wpp / pmode / pme / no-psnr / no-ssim / log-level=2 / input-csp=1 / input-res=3840x1606 / interlace=0 / total-frames=166632 / level-idc=51 / high-tier=1 / uhd-bd=0 / ref=4 / no-allow-non-conformance / repeat-headers / annexb / no-aud / hrd / info / hash=0 / no-temporal-layers / no-open-gop / min-keyint=24 / keyint=240 / gop-lookahead=0 / bframes=8 / b-adapt=2 / b-pyramid / bframe-bias=0 / rc-lookahead=25 / lookahead-slices=0 / NTMzNTQ=uuDQuD2mJt9fsCf / scenecut=40 / hist-scenecut=0 / radl=0 / no-splice / no-intra-refresh / ctu=64 / min-cu-size=8 / no-rect / no-amp / max-tu-size=32 / tu-inter-depth=3 / tu-intra-depth=3 / limit-tu=4 / rdoq-level=2 / dynamic-rd=0.00 / no-ssim-rd / signhide / no-tskip / nr-intra=0 / nr-inter=0 / no-constrained-intra / no-strong-intra-smoothing / max-merge=4 / limit-refs=1 / limit-modes / me=3 / subme=4 / merange=25 / temporal-mvp / no-frame-dup / no-hme / weightp / weightb / no-analyze-src-pics / deblock=-3:-3 / no-sao / no-sao-non-deblock / rd=6 / selective-sao=0 / no-early-skip / rskip / no-fast-intra / no-tskip-fast / no-cu-lossless / b-intra / no-splitrd-skip / rdpenalty=0 / psy-rd=2.00 / psy-rdoq=1.00 / no-rd-refine / no-lossless / cbqpoffs=0 / crqpoffs=0 / rc=crf / crf=18.5 / qcomp=0.65 / qpstep=4 / stats-write=0 / stats-read=0 / vbv-maxrate=160000 / vbv-bufsize=160000 / vbv-init=0.9 / crf-max=0.0 / crf-min=0.0 / ipratio=1.30 / pbratio=1.20 / aq-mode=3 / aq-strength=0.85 / cutree / zone-count=0 / no-strict-cbr / qg-size=32 / no-rc-grain / qpmax=69 / qpmin=0 / no-const-vbv / sar=1 / overscan=0 / videoformat=5 / range=0 / colorprim=9 / transfer=16 / colormatrix=9 / chromaloc=1 / chromaloc-top=2 / chromaloc-bottom=2 / display-window=0 / master-display=G(13250,34500)B(7500,3000)R(34000,16000)WP(15635,16450)L(10000000,50) / cll=1000,412 / min-luma=0 / max-luma=1023 / log2-max-poc-lsb=8 / vui-timing-info / vui-hrd-info / slices=1 / no-opt-qp-pps / no-opt-ref-list-length-pps / no-multi-pass-opt-rps / scenecut-bias=0.05 / hist-threshold=0.03 / no-opt-cu-delta-qp / no-aq-motion / hdr10 / hdr10-opt / no-dhdr10-opt / no-idr-recovery-sei / analysis-reuse-level=0 / analysis-save-reuse-level=0 / analysis-load-reuse-level=0 / scale-factor=0 / refine-intra=0 / refine-inter=0 / refine-mv=1 / refine-ctu-distortion=0 / no-limit-sao / ctu-info=0 / no-lowpass-dct / refine-analysis-type=0 / copy-pic=1 / max-ausize-factor=1.0 / no-dynamic-refine / no-single-sei / no-hevc-aq / no-svt / no-field / qp-adaptation-range=1.00 / no-scenecut-aware-qpconformance-window-offsets / right=0 / bottom=0 / NTMzNTQ= / decoder-max-rate=0

  36. Language : English

  37. Default : Yes

  38. Forced : No

  39. Color range : Limited

  40. Color primaries : BT.2020

  41. Transfer characteristics : PQ

  42. Matrix coefficients : BT.2020 non-constant

  43. Mastering display color primaries : Display P3

  44. Mastering display luminance : min: 0.0050 cd/m2, max: 1000 cd/m2

  45. Maximum Content Light Level : 1000 cd/m2

  46. Maximum Frame-Average Light Level : 412 cd/m2

  47. Audio #1

  48. ID : 2

  49. Format : MLP FBA 16-ch

  50. Format/Info : Meridian Lossless Packing FBA with 16-channel presentation

  51. Commercial name : Dolby TrueHD with Dolby Atmos

  52. Codec ID : A_TRUEHD

  53. Duration : 1 h 55 min

  54. Bit rate mode : Variable

  55. Bit rate : 4 607 kb/s

  56. Maximum bit rate : 8 913 kb/s

  57. Channel(s) : 8 channels

  58. Channel layout : L R C LFE Ls Rs Lb Rb

  59. Sampling rate : 48.0 kHz

  60. Frame rate : 1 200.000 FPS (40 SPF)

  61. Compression mode : Lossless

  62. Stream size : 3.73 GiB (14%)

  63. Title : English Dolby TrueHD 7.1 (Atmos) @ 5247 kbps

  64. Language : English

  65. Default : Yes

  66. Forced : No

  67. Number of dynamic objects : 11

  68. Bed channel count : 1 channel

  69. Bed channel configuration : LFE

  70. Audio #2

  71. ID : 3

  72. Format : AC-3

  73. Format/Info : Audio Coding 3

  74. Commercial name : Dolby Digital

  75. Codec ID : A_AC3

  76. Duration : 1 h 55 min

  77. Bit rate mode : Constant

  78. Bit rate : 640 kb/s

  79. Channel(s) : 6 channels

  80. Channel layout : L R C LFE Ls Rs

  81. Sampling rate : 48.0 kHz

  82. Frame rate : 31.250 FPS (1536 SPF)

  83. Compression mode : Lossy

  84. Stream size : 530 MiB (2%)

  85. Title : English AC3 5.1-EX @ 640 kbps

  86. Language : English

  87. Service kind : Complete Main

  88. Default : No

  89. Forced : No

  90. Text #1

  91. ID : 4

  92. Format : PGS

  93. Codec ID : S_HDMV/PGS

  94. Codec ID/Info : Picture based subtitle format used on BDs/HD-DVDs

  95. Duration : 1 h 45 min

  96. Bit rate : 33.6 kb/s

  97. Count of elements : 3073

  98. Stream size : 25.4 MiB (0%)

  99. Title : Eng/SUP

  100. Language : English

  101. Default : No

  102. Forced : No

  103. Text #2

  104. ID : 5

  105. Format : PGS

  106. Codec ID : S_HDMV/PGS

  107. Codec ID/Info : Picture based subtitle format used on BDs/HD-DVDs

  108. Duration : 1 h 54 min

  109. Bit rate : 35.2 kb/s

  110. Count of elements : 3425

  111. Stream size : 28.8 MiB (0%)

  112. Title : Eng/SUP SDH

  113. Language : English

  114. Default : No

  115. Forced : No

  116. Text #3

  117. ID : 6

  118. Format : PGS

  119. Codec ID : S_HDMV/PGS

  120. Codec ID/Info : Picture based subtitle format used on BDs/HD-DVDs

  121. Duration : 1 h 46 min

  122. Bit rate : 24.9 kb/s

  123. Count of elements : 2964

  124. Stream size : 19.0 MiB (0%)

  125. Title : Chs/SUP 简体

  126. Language : Chinese

  127. Default : Yes

  128. Forced : No

  129. Text #4

  130. ID : 7

  131. Format : PGS

  132. Codec ID : S_HDMV/PGS

  133. Codec ID/Info : Picture based subtitle format used on BDs/HD-DVDs

  134. Duration : 1 h 46 min

  135. Bit rate : 26.0 kb/s

  136. Count of elements : 2964

  137. Stream size : 19.8 MiB (0%)

  138. Title : Cht/SUP 繁体

  139. Language : Chinese

  140. Default : No

  141. Forced : No

  142. Menu

  143. 00:00:00.000 : :第 01 章

  144. 00:08:17.622 : :第 02 章

  145. 00:16:14.098 : :第 03 章

  146. 00:22:40.150 : :第 04 章

  147. 00:28:19.990 : :第 05 章

  148. 00:35:19.159 : :第 06 章

  149. 00:45:10.958 : :第 07 章

  150. 00:51:15.364 : :第 08 章

  151. 01:00:08.063 : :第 09 章

  152. 01:07:33.299 : :第 10 章

  153. 01:16:31.629 : :第 11 章

  154. 01:23:02.561 : :第 12 章

  155. 01:28:10.285 : :第 13 章

  156. 01:33:26.684 : :第 14 章

  157. 01:38:22.814 : :第 15 章

  158. 01:44:43.736 : :第 16 章


复制代码



文件下载


除非特别注明,本文『赤焰战场[共2部合集][简繁英字幕].RED.1-2.2010-2013.UHD.BluRay.2160p.TrueHD.Atmos.7.1.x265.10bit.HDR-ALT 50.81GB』来源于互联网机器人自动抓取,非本站原创。 浮游电影网不对本文拥有版权,如有侵犯,请联系邮箱:fuyouu#yandex.com[#换成@]投诉。我们会在15个工作日内删除。 但烦请转载时请标明出处:“本文转载于『浮游电影网』,原文地址:https://www.fuyouu.com/22803.html

评论吧骚年!

发表你的见解   

昵称*

E-mail*(建议输入,以便收到博主回复的提示邮件)

验证码*

您可以使用eMule或eMule Mod(Windows)、aMule(Win、Linux、Mac)等软件下载eD2k链接。。
eMule收藏集(.emulecollection)文件是您选中的所有链接的列表文件。eMule可以直接下载它们。
按住SHIFT键选择可以选中多个选择框。
可用文件名和大小选择器来选择文件。
文件名选择器帮您根据文件名称或后缀来选择文件。不分大小写。
符号使用:
和:空格( )、+
不包含:-
或:|
转义:一对英文引号("");
匹配开头:^
匹配结尾:$
例如:
选中所有名称中包含有“eMule”或“0.49c”字眼,但不包含有“exe”字眼的:emule|0.49c -exe
选中所有名称的开头是“eMule”,结尾是“0.49c”的:^emule 0.49c$
选中所有名称中带有“eMule 0.49c”的(必须是“eMule 0.49c”,中间没有别的字符,不能是“eMule fake 0.49c”),需要转义:"emule 0.49c"
大小选择器帮您根据文件大小选择文件。