当前位置: 首页 >> 国产电影 >> 鬼吹灯之精绝古城[国语配音/中文字幕].Gui.Chui.Deng.Zhi.Jing.Jue.Gu.Cheng.2022.2160p.WEB-DL.H265.AAC-MOMOWEB 2.47GB >> 正文

鬼吹灯之精绝古城[国语配音/中文字幕].Gui.Chui.Deng.Zhi.Jing.Jue.Gu.Cheng.2022.2160p.WEB-DL.H265.AAC-MOMOWEB 2.47GB

2022年09月01日 16:47:04     电影发布:来源于网络     电影分类:国产电影     评论(0)    

◎标 题 鬼吹灯之精绝古城

◎译 名 精绝古城

◎年 代 2023

◎产 地 中国大陆

◎类 别 剧情 / 动作 / 科幻 / 惊悚 / 冒险

◎语 言 汉语普通话

◎IMDb链接 https://www.imdb.com/title//

◎豆瓣链接 https://movie.douban.com/subject/35936420/

◎导 演 林珍钊 Zhenzhao Lin

◎编 剧 张圣帆 Shengfan Zhang

黄梦梦 Mengmeng Huang

◎演 员 于毅 Yi Yu

付美 Mei Fu

孔连顺 Lianshun Kong

◎简 介

电影《鬼吹灯之精绝古城》主要讲述胡八一与王凯旋带领Shirley杨组织的考古队前往沙漠腹地、寻找精绝古城的故事。胡八一上山下乡来到中蒙边境的岗岗营子,带上了家中仅存的一本书——《十六字阴阳风水秘术》,闲来无事将书中文字背得滚瓜烂熟。之后参军到西藏,遇上雪崩掉落一条巨大的地沟当中,胡八一利用自己懂得的秘术逃得不死。复员后,胡八一和好友胖子一起加入了一支前往新疆考古的考古队。一行人历经万险来到了塔克拉玛干沙漠中的精绝古城遗址,进入了地下“鬼洞”。洞中机关重重、陷阱不断,这神秘的鬼洞似乎在一位先知的掌控之中。

影片欲通过考古队一心为科研与王胖子贪财的对比,安力满的虔诚与考古队态度的反差等形成多组博弈,组成探险队鲜活的人物画卷。通过众位实力派与戏骨的倾情演绎,将曾经存在于读者想象中的人物跃然于荧屏,还原了这一场惊心动魄的大漠探险。

  1. ##### MediaInfo ######

  2. General

  3. Unique ID : 224240931193082173201967178190529807399 (0xA8B33B7F7F4B0B0103421185BAACC427)

  4. Complete name : Gui.Chui.Deng.Zhi.Jing.Jue.Gu.Cheng.2022.2160p.WEB-DL.H265.AAC-MOMOWEB.mkv

  5. Format : Matroska

  6. Format version : Version 4

  7. File size : 2.47 GiB

  8. Duration : 1 h 57 min

  9. Overall bit rate : 2 999 kb/s

  10. Encoded date : UTC 2022-09-01 01:59:24

  11. Writing application : mkvmerge v58.0.0 ('Supper's Ready') 64-bit

  12. Writing library : libebml v1.4.2 + libmatroska v1.6.4

  13. Video

  14. ID : 1

  15. Format : HEVC

  16. Format/Info : High Efficiency Video Coding

  17. Format profile : [email protected]@Main

  18. Codec ID : V_MPEGH/ISO/HEVC

  19. Duration : 1 h 57 min

  20. Bit rate : 2 872 kb/s

  21. Width : 3 840 pixels

  22. Height : 1 632 pixels

  23. Display aspect ratio : 2.35:1

  24. Frame rate mode : Constant

  25. Frame rate : 25.000 FPS

  26. Color space : YUV

  27. Chroma subsampling : 4:2:0

  28. Bit depth : 8 bits

  29. Bits/(Pixel*Frame) : 0.018

  30. Stream size : 2.37 GiB (96%)

  31. Language : Chinese

  32. Default : Yes

  33. Forced : No

  34. Color range : Limited

  35. Color primaries : BT.709

  36. Transfer characteristics : BT.709

  37. Matrix coefficients : BT.709

  38. Audio

  39. ID : 2

  40. Format : AAC LC

  41. Format/Info : Advanced Audio Codec Low Complexity

  42. Codec ID : A_AAC-2

  43. Duration : 1 h 57 min

  44. Bit rate : 125 kb/s

  45. Channel(s) : 2 channels

  46. Channel layout : L R

  47. Sampling rate : 48.0 kHz

  48. Frame rate : 46.875 FPS (1024 SPF)

  49. Compression mode : Lossy

  50. Delay relative to video : -42 ms

  51. Stream size : 106 MiB (4%)

  52. Language : Chinese

  53. Default : Yes

  54. Forced : No


复制代码



文件下载


除非特别注明,本文『鬼吹灯之精绝古城[国语配音/中文字幕].Gui.Chui.Deng.Zhi.Jing.Jue.Gu.Cheng.2022.2160p.WEB-DL.H265.AAC-MOMOWEB 2.47GB』来源于互联网机器人自动抓取,非本站原创。 浮游电影网不对本文拥有版权,如有侵犯,请联系邮箱:fuyouu#yandex.com[#换成@]投诉。我们会在15个工作日内删除。 但烦请转载时请标明出处:“本文转载于『浮游电影网』,原文地址:https://www.fuyouu.com/22800.html

评论吧骚年!

发表你的见解   

昵称*

E-mail*(建议输入,以便收到博主回复的提示邮件)

验证码*

您可以使用eMule或eMule Mod(Windows)、aMule(Win、Linux、Mac)等软件下载eD2k链接。。
eMule收藏集(.emulecollection)文件是您选中的所有链接的列表文件。eMule可以直接下载它们。
按住SHIFT键选择可以选中多个选择框。
可用文件名和大小选择器来选择文件。
文件名选择器帮您根据文件名称或后缀来选择文件。不分大小写。
符号使用:
和:空格( )、+
不包含:-
或:|
转义:一对英文引号("");
匹配开头:^
匹配结尾:$
例如:
选中所有名称中包含有“eMule”或“0.49c”字眼,但不包含有“exe”字眼的:emule|0.49c -exe
选中所有名称的开头是“eMule”,结尾是“0.49c”的:^emule 0.49c$
选中所有名称中带有“eMule 0.49c”的(必须是“eMule 0.49c”,中间没有别的字符,不能是“eMule fake 0.49c”),需要转义:"emule 0.49c"
大小选择器帮您根据文件大小选择文件。