当前位置: 首页 >> 欧美电影 >> BBC 自然世界 2010 神秘的豹[共5部合集][简繁字幕].The.World.Natural.Heritage.2010.BluRay.1080p.3Audio.DTS-HD.MA.5.1.x2 >> 正文

BBC 自然世界 2010 神秘的豹[共5部合集][简繁字幕].The.World.Natural.Heritage.2010.BluRay.1080p.3Audio.DTS-HD.MA.5.1.x2

2022年08月27日 15:49:25     电影发布:来源于网络     电影分类:欧美电影     评论(0)    

BBC 自然世界 2010 神秘的豹[共5部合集][简繁字幕].The.World.Natural.Heritage.2010.BluRay.1080p.3Audio.DTS-HD.MA.5.1.x265.10bit-ALT 100.30GB

◎标 题 BBC 自然世界 2010 神秘的豹

◎片 名 BBC.Natural.World.2010.The.Secret.Leopards

◎年 代 2010

◎产 地 英国

◎类 别 纪录片

◎语 言 英语

◎上映日期 2010

◎IMDb链接 https://www.imdb.com/title//

◎豆瓣评分 8.6/10 (78人评价)

◎豆瓣链接 https://movie.douban.com/subject/4830907/

◎片 长 59分钟

◎简 介

Jonathan Scott担任解说,向我们介绍豹的神奇故事,探究豹是如何进化为强大的生存者的。

The Secret Leopards: Jonathan Scott narrates the extraordinary story of the leopard, investigating what it is about the natural history of these cats that makes them born survivors.

  1. 合集文件列表:

  2. 1.The.World.Natural.Heritage.2010.Africa.BluRay.1080p.3Audio.DTS-HD.MA.5.1.x265.10bit-ALT.mkv 19.26GB

  3. 2.The.World.Natural.Heritage.2010.Asia.BluRay.1080p.3Audio.DTS-HD.MA.5.1.x265.10bit-ALT.mkv 22.38GB

  4. 3.The.World.Natural.Heritage.2010.Europe.BluRay.1080p.3Audio.DTS-HD.MA.5.1.x265.10bit-ALT.mkv 20.17GB

  5. 4.The.World.Natural.Heritage.2010.North.America.&.Central.America.BluRay.1080p.3Audio.DTS-HD.MA.5.1.x265.10bit-ALT.mkv 19.41GB

  6. 5.The.World.Natural.Heritage.2010.South.America.&.Oceania.BluRay.1080p.3Audio.DTS-HD.MA.5.1.x265.10bit-ALT.mkv 19.08GB


复制代码

  1. ##### MediaInfo ######

  2. General

  3. Unique ID : 50062940943498212755359911343992636002 (0x25A9C58E9248E69FC0032175B3BC8262)

  4. Complete name : The.World.Natural.Heritage.2010.Africa.BluRay.1080p.3Audio.DTS-HD.MA.5.1.x265.10bit-ALT.mkv

  5. Format : Matroska

  6. Format version : Version 4

  7. File size : 19.3 GiB

  8. Duration : 2 h 6 min

  9. Overall bit rate mode : Variable

  10. Overall bit rate : 21.8 Mb/s

  11. Encoded date : UTC 2020-04-11 12:38:33

  12. Writing application : mkvmerge v45.0.0 ('Heaven in Pennies') 64-bit

  13. Writing library : libebml v1.3.10 + libmatroska v1.5.2

  14. Video

  15. ID : 1

  16. Format : HEVC

  17. Format/Info : High Efficiency Video Coding

  18. Format profile : Main [email protected]@High

  19. Codec ID : V_MPEGH/ISO/HEVC

  20. Duration : 2 h 6 min

  21. Bit rate : 16.3 Mb/s

  22. Width : 1 920 pixels

  23. Height : 1 080 pixels

  24. Display aspect ratio : 16:9

  25. Frame rate mode : Constant

  26. Frame rate : 29.970 (30000/1001/53354) FPS

  27. Color space : YUV

  28. Chroma subsampling : 4:2:0

  29. Bit depth : 10 bits

  30. Bits/(Pixel*Frame) : 0.262

  31. Stream size : 14.4 GiB (75%)

  32. Title : HEVC, [email protected]@High, 30/1.001 fps

  33. Writing library : x265 3.3+1-g396395b2b:[Windows][GCC 9.2.0][64 bit] 10bit

  34. Encoding settings : cpuid=533541111039 / frame-threads=3 / numa-pools=8 / wpp / pmode / pme / no-psnr / no-ssim / log-level=2 / input-csp=1 / input-res=1920x1080 / interlace=0 / total-frames=227779 / level-idc=51 / high-tier=1 / uhd-bd=0 / ref=5 / no-allow-non-conformance / no-repeat-headers / annexb / no-aud / no-hrd / info / hash=0 / no-temporal-layers / open-gop / min-keyint=24 / keyint=240 / gop-lookahead=0 / bframes=6 / b-adapt=2 / b-pyramid / bframe-bias=0 / rc-lookahead=40 / lookahead-slices=0 / NTMzNTQ=uuDQuD2mJt9fsCf / scenecut=40 / hist-scenecut=0 / radl=0 / no-splice / no-intra-refresh / ctu=32 / min-cu-size=8 / no-rect / no-amp / max-tu-size=32 / tu-inter-depth=3 / tu-intra-depth=3 / limit-tu=4 / rdoq-level=2 / dynamic-rd=0.00 / no-ssim-rd / signhide / no-tskip / nr-intra=0 / nr-inter=0 / no-constrained-intra / no-strong-intra-smoothing / max-merge=4 / limit-refs=1 / limit-modes / me=3 / subme=4 / merange=25 / temporal-mvp / no-frame-dup / no-hme / weightp / weightb / no-analyze-src-pics / deblock=-3:-3 / no-sao / no-sao-non-deblock / rd=6 / selective-sao=0 / no-early-skip / rskip / no-fast-intra / no-tskip-fast / no-cu-lossless / b-intra / no-splitrd-skip / rdpenalty=0 / psy-rd=2.00 / psy-rdoq=1.00 / no-rd-refine / no-lossless / cbqpoffs=0 / crqpoffs=0 / rc=crf / crf=19.5 / qcomp=0.65 / qpstep=4 / stats-write=0 / stats-read=0 / vbv-maxrate=80000 / vbv-bufsize=80000 / vbv-init=0.9 / crf-max=0.0 / crf-min=0.0 / ipratio=1.40 / pbratio=1.30 / aq-mode=2 / aq-strength=0.85 / cutree / zone-count=0 / no-strict-cbr / qg-size=32 / no-rc-grain / qpmax=69 / qpmin=0 / no-const-vbv / sar=1 / overscan=0 / videoformat=5 / range=0 / colorprim=1 / transfer=1 / colormatrix=1 / chromaloc=0 / display-window=0 / cll=0,0 / min-luma=0 / max-luma=1023 / log2-max-poc-lsb=8 / vui-timing-info / vui-hrd-info / slices=1 / no-opt-qp-pps / no-opt-ref-list-length-pps / no-multi-pass-opt-rps / scenecut-bias=0.05 / hist-threshold=0.01 / no-opt-cu-delta-qp / no-aq-motion / no-hdr10 / no-hdr10-opt / no-dhdr10-opt / no-idr-recovery-sei / analysis-reuse-level=0 / analysis-save-reuse-level=0 / analysis-load-reuse-level=0 / scale-factor=0 / refine-intra=0 / refine-inter=0 / refine-mv=1 / refine-ctu-distortion=0 / no-limit-sao / ctu-info=0 / no-lowpass-dct / refine-analysis-type=0 / copy-pic=1 / max-ausize-factor=1.0 / no-dynamic-refine / no-single-sei / no-hevc-aq / no-svt / no-field / qp-adaptation-range=1.00 / no-scenecut-aware-qpconformance-window-offsets / right=0 / bottom=0 / NTMzNTQ=

  35. Language : English

  36. Default : Yes

  37. Forced : No

  38. Color range : Limited

  39. Color primaries : BT.709

  40. Transfer characteristics : BT.709

  41. Matrix coefficients : BT.709

  42. Audio #1

  43. ID : 2

  44. Format : DTS XLL

  45. Format/Info : Digital Theater Systems

  46. Commercial name : DTS-HD Master Audio

  47. Codec ID : A_DTS

  48. Duration : 2 h 6 min

  49. Bit rate mode : Variable

  50. Bit rate : 2 394 kb/s

  51. Channel(s) : 6 channels

  52. Channel layout : C L R Ls Rs LFE

  53. Sampling rate : 48.0 kHz

  54. Frame rate : 93.750 FPS (512 SPF)

  55. Bit depth : 16 bits

  56. Compression mode : Lossless

  57. Stream size : 2.12 GiB (11%)

  58. Title : Pure music DTS-HD Master Audio 5.1 纯音乐音效

  59. Language : English

  60. Default : No

  61. Forced : No

  62. Audio #2

  63. ID : 3

  64. Format : DTS XLL

  65. Format/Info : Digital Theater Systems

  66. Commercial name : DTS-HD Master Audio

  67. Codec ID : A_DTS

  68. Duration : 2 h 6 min

  69. Bit rate mode : Variable

  70. Bit rate : 1 044 kb/s

  71. Channel(s) : 2 channels

  72. Channel layout : L R

  73. Sampling rate : 48.0 kHz

  74. Frame rate : 93.750 FPS (512 SPF)

  75. Bit depth : 16 bits

  76. Compression mode : Lossless

  77. Stream size : 946 MiB (5%)

  78. Title : English DTS-HD Master Audio 2.0

  79. Language : English

  80. Default : Yes

  81. Forced : No

  82. Audio #3

  83. ID : 4

  84. Format : DTS XLL

  85. Format/Info : Digital Theater Systems

  86. Commercial name : DTS-HD Master Audio

  87. Codec ID : A_DTS

  88. Duration : 2 h 6 min

  89. Bit rate mode : Variable

  90. Bit rate : 1 995 kb/s

  91. Channel(s) : 6 channels

  92. Channel layout : C L R Ls Rs LFE

  93. Sampling rate : 48.0 kHz

  94. Frame rate : 93.750 FPS (512 SPF)

  95. Bit depth : 16 bits

  96. Compression mode : Lossless

  97. Stream size : 1.76 GiB (9%)

  98. Title : Pure music DTS-HD Master Audio 5.1 纯音乐

  99. Language : English

  100. Default : No

  101. Forced : No

  102. Text #1

  103. ID : 5

  104. Format : PGS

  105. Codec ID : S_HDMV/PGS

  106. Codec ID/Info : Picture based subtitle format used on BDs/HD-DVDs

  107. Duration : 2 h 5 min

  108. Bit rate : 26.4 kb/s

  109. Count of elements : 2038

  110. Stream size : 23.6 MiB (0%)

  111. Title : Chs/SUP 简体

  112. Language : Chinese

  113. Default : Yes

  114. Forced : No

  115. Text #2

  116. ID : 6

  117. Format : PGS

  118. Codec ID : S_HDMV/PGS

  119. Codec ID/Info : Picture based subtitle format used on BDs/HD-DVDs

  120. Duration : 2 h 5 min

  121. Bit rate : 27.6 kb/s

  122. Count of elements : 2038

  123. Stream size : 24.7 MiB (0%)

  124. Title : Cht/SUP 繁体

  125. Language : Chinese

  126. Default : No

  127. Forced : No

  128. Menu

  129. 00:00:00.000 : en:第 01 章

  130. 00:02:25.120 : en:第 02 章

  131. 00:14:37.815 : en:第 03 章

  132. 00:26:50.520 : en:第 04 章

  133. 00:39:03.195 : en:第 05 章

  134. 00:51:15.905 : en:第 06 章

  135. 01:03:27.135 : en:第 07 章

  136. 01:05:52.240 : en:第 08 章

  137. 01:18:04.940 : en:第 09 章

  138. 01:30:17.640 : en:第 10 章

  139. 01:42:30.330 : en:第 11 章

  140. 01:54:43.045 : en:第 12 章



文件下载


除非特别注明,本文『BBC 自然世界 2010 神秘的豹[共5部合集][简繁字幕].The.World.Natural.Heritage.2010.BluRay.1080p.3Audio.DTS-HD.MA.5.1.x2』来源于互联网机器人自动抓取,非本站原创。 浮游电影网不对本文拥有版权,如有侵犯,请联系邮箱:fuyouu#yandex.com[#换成@]投诉。我们会在15个工作日内删除。 但烦请转载时请标明出处:“本文转载于『浮游电影网』,原文地址:https://www.fuyouu.com/22799.html

评论吧骚年!

发表你的见解   

昵称*

E-mail*(建议输入,以便收到博主回复的提示邮件)

验证码*

您可以使用eMule或eMule Mod(Windows)、aMule(Win、Linux、Mac)等软件下载eD2k链接。。
eMule收藏集(.emulecollection)文件是您选中的所有链接的列表文件。eMule可以直接下载它们。
按住SHIFT键选择可以选中多个选择框。
可用文件名和大小选择器来选择文件。
文件名选择器帮您根据文件名称或后缀来选择文件。不分大小写。
符号使用:
和:空格( )、+
不包含:-
或:|
转义:一对英文引号("");
匹配开头:^
匹配结尾:$
例如:
选中所有名称中包含有“eMule”或“0.49c”字眼,但不包含有“exe”字眼的:emule|0.49c -exe
选中所有名称的开头是“eMule”,结尾是“0.49c”的:^emule 0.49c$
选中所有名称中带有“eMule 0.49c”的(必须是“eMule 0.49c”,中间没有别的字符,不能是“eMule fake 0.49c”),需要转义:"emule 0.49c"
大小选择器帮您根据文件大小选择文件。