当前位置: 首页 >> 国产电影 >> 颐和园[纪录片][共6部合集][国语音轨].The.Summer.Palace.2010.EP01-06.BluRay.1080p.AC3.x265.10bit-ALT 32.18GB >> 正文

颐和园[纪录片][共6部合集][国语音轨].The.Summer.Palace.2010.EP01-06.BluRay.1080p.AC3.x265.10bit-ALT 32.18GB

2022年08月27日 15:46:44     电影发布:来源于网络     电影分类:国产电影     评论(0)    

p2194060843.jpg

◎标  题 颐和园(纪录片)
◎译  名 颐和园
◎年  代 2010
◎产  地 中国大陆
◎类  别 纪录片
◎语  言 汉语普通话
◎上映日期 2010-12-26(中国大陆)
◎IMDb链接 https://www.imdb.com/title//
◎豆瓣链接 https://movie.douban.com/subject/5446253/
◎片  长 45分钟
◎导  演 金明哲 Mingzhe Jin
       胡琤 Cheng Hu
       张越佳 Yuejia Zhang

◎简  介
  两度寒暑的大型拍摄,震撼奢华的视觉盛宴,揭秘一座皇家园林的前世今生。特技、再现,复活清漪园久已消失的绝世风景;故事、人物,描摹颐和园风云变幻的皇家生活。                                    
                                (此条目为CCTV摄制的6集纪录片 ,非同名文艺爱情影片,标记时请区分留意,非常感谢!- 豆瓣电影团队)



  1. 合集文件列表:

  2. 1.The.Summer.Palace.2010.EP01.BluRay.1080p.AC3.x265.10bit-ALT.mkv 5.27GB

  3. 2.The.Summer.Palace.2010.EP02.BluRay.1080p.AC3.x265.10bit-ALT.mkv 5.95GB

  4. 3.The.Summer.Palace.2010.EP03.BluRay.1080p.AC3.x265.10bit-ALT.mkv 4.98GB

  5. 4.The.Summer.Palace.2010.EP04.BluRay.1080p.AC3.x265.10bit-ALT.mkv 5.18GB

  6. 5.The.Summer.Palace.2010.EP05.BluRay.1080p.AC3.x265.10bit-ALT.mkv 5.14GB

  7. 6.The.Summer.Palace.2010.EP06.BluRay.1080p.AC3.x265.10bit-ALT.mkv 5.65GB


复制代码





  1. ##### MediaInfo ######

  2. General

  3. Unique ID                                : 219791282100988287901663593226922353701 (0xA55A42DC203ECCAB49B2D52B5A63E425)

  4. Complete name                            : The.Summer.Palace.2010.EP01.BluRay.1080p.AC3.x265.10bit-ALT.mkv

  5. Format                                   : Matroska

  6. Format version                           : Version 4

  7. File size                                : 5.27 GiB

  8. Duration                                 : 45 min 9 s

  9. Overall bit rate                         : 16.7 Mb/s

  10. Encoded date                             : UTC 2020-07-13 03:27:27

  11. Writing application                      : mkvmerge v48.0.0 ('Fortress Around Your Heart') 64-bit

  12. Writing library                          : libebml v1.4.0 + libmatroska v1.6.0

  13. Video

  14. ID                                       : 1

  15. Format                                   : HEVC

  16. Format/Info                              : High Efficiency Video Coding

  17. Format profile                           : Main [email protected]@High

  18. Codec ID                                 : V_MPEGH/ISO/HEVC

  19. Duration                                 : 45 min 9 s

  20. Bit rate                                 : 16.3 Mb/s

  21. Width                                    : 1 920 pixels

  22. Height                                   : 1 080 pixels

  23. Display aspect ratio                     : 16:9

  24. Frame rate mode                          : Constant

  25. Frame rate                               : 29.970 (30000/1001/53354) FPS

  26. Color space                              : YUV

  27. Chroma subsampling                       : 4:2:0

  28. Bit depth                                : 10 bits

  29. Bits/(Pixel*Frame)                       : 0.263

  30. Stream size                              : 5.15 GiB (98%)

  31. Title                                    : HEVC, [email protected]@High, 30/1.001 fps

  32. Writing library                          : x265 3.3+1-g396395b2b:[Windows][GCC 9.2.0][64 bit] 10bit

  33. Encoding settings                        : cpuid=533541111039 / frame-threads=3 / numa-pools=8 / wpp / pmode / pme / no-psnr / no-ssim / log-level=2 / input-csp=1 / input-res=1920x1080 / interlace=0 / total-frames=81212 / level-idc=51 / high-tier=1 / uhd-bd=0 / ref=5 / no-allow-non-conformance / no-repeat-headers / annexb / no-aud / no-hrd / info / hash=0 / no-temporal-layers / open-gop / min-keyint=24 / keyint=240 / gop-lookahead=0 / bframes=6 / b-adapt=2 / b-pyramid / bframe-bias=0 / rc-lookahead=40 / lookahead-slices=0 / NTMzNTQ=uuDQuD2mJt9fsCf / scenecut=40 / hist-scenecut=0 / radl=0 / no-splice / no-intra-refresh / ctu=32 / min-cu-size=8 / no-rect / no-amp / max-tu-size=32 / tu-inter-depth=3 / tu-intra-depth=3 / limit-tu=4 / rdoq-level=2 / dynamic-rd=0.00 / no-ssim-rd / signhide / no-tskip / nr-intra=0 / nr-inter=0 / no-constrained-intra / no-strong-intra-smoothing / max-merge=4 / limit-refs=1 / limit-modes / me=3 / subme=4 / merange=25 / temporal-mvp / no-frame-dup / no-hme / weightp / weightb / no-analyze-src-pics / deblock=-3:-3 / no-sao / no-sao-non-deblock / rd=6 / selective-sao=0 / no-early-skip / rskip / no-fast-intra / no-tskip-fast / no-cu-lossless / b-intra / no-splitrd-skip / rdpenalty=0 / psy-rd=2.00 / psy-rdoq=1.00 / no-rd-refine / no-lossless / cbqpoffs=0 / crqpoffs=0 / rc=crf / crf=17.0 / qcomp=0.65 / qpstep=4 / stats-write=0 / stats-read=0 / vbv-maxrate=80000 / vbv-bufsize=80000 / vbv-init=0.9 / crf-max=0.0 / crf-min=0.0 / ipratio=1.40 / pbratio=1.30 / aq-mode=2 / aq-strength=0.85 / cutree / zone-count=0 / no-strict-cbr / qg-size=32 / no-rc-grain / qpmax=69 / qpmin=0 / no-const-vbv / sar=1 / overscan=0 / videoformat=5 / range=0 / colorprim=1 / transfer=1 / colormatrix=1 / chromaloc=0 / display-window=0 / cll=0,0 / min-luma=0 / max-luma=1023 / log2-max-poc-lsb=8 / vui-timing-info / vui-hrd-info / slices=1 / no-opt-qp-pps / no-opt-ref-list-length-pps / no-multi-pass-opt-rps / scenecut-bias=0.05 / hist-threshold=0.01 / no-opt-cu-delta-qp / no-aq-motion / no-hdr10 / no-hdr10-opt / no-dhdr10-opt / no-idr-recovery-sei / analysis-reuse-level=0 / analysis-save-reuse-level=0 / analysis-load-reuse-level=0 / scale-factor=0 / refine-intra=0 / refine-inter=0 / refine-mv=1 / refine-ctu-distortion=0 / no-limit-sao / ctu-info=0 / no-lowpass-dct / refine-analysis-type=0 / copy-pic=1 / max-ausize-factor=1.0 / no-dynamic-refine / no-single-sei / no-hevc-aq / no-svt / no-field / qp-adaptation-range=1.00 / no-scenecut-aware-qpconformance-window-offsets / right=0 / bottom=0 / NTMzNTQ=

  34. Language                                 : English

  35. Default                                  : Yes

  36. Forced                                   : No

  37. Color range                              : Limited

  38. Color primaries                          : BT.709

  39. Transfer characteristics                 : BT.709

  40. Matrix coefficients                      : BT.709

  41. Audio

  42. ID                                       : 2

  43. Format                                   : AC-3

  44. Format/Info                              : Audio Coding 3

  45. Commercial name                          : Dolby Digital

  46. Codec ID                                 : A_AC3

  47. Duration                                 : 45 min 9 s

  48. Bit rate mode                            : Constant

  49. Bit rate                                 : 384 kb/s

  50. Channel(s)                               : 6 channels

  51. Channel layout                           : L R C LFE Ls Rs

  52. Sampling rate                            : 48.0 kHz

  53. Frame rate                               : 31.250 FPS (1536 SPF)

  54. Compression mode                         : Lossy

  55. Stream size                              : 124 MiB (2%)

  56. Title                                    : Mandarin Dolby Digital Audio 5.1 @ 384 kbps

  57. Language                                 : Chinese

  58. Service kind                             : Complete Main

  59. Default                                  : Yes

  60. Forced                                   : No


复制代码





文件下载


除非特别注明,本文『颐和园[纪录片][共6部合集][国语音轨].The.Summer.Palace.2010.EP01-06.BluRay.1080p.AC3.x265.10bit-ALT 32.18GB』来源于互联网机器人自动抓取,非本站原创。 浮游电影网不对本文拥有版权,如有侵犯,请联系邮箱:fuyouu#yandex.com[#换成@]投诉。我们会在15个工作日内删除。 但烦请转载时请标明出处:“本文转载于『浮游电影网』,原文地址:https://www.fuyouu.com/22798.html

评论吧骚年!

发表你的见解   

昵称*

E-mail*(建议输入,以便收到博主回复的提示邮件)

验证码*

您可以使用eMule或eMule Mod(Windows)、aMule(Win、Linux、Mac)等软件下载eD2k链接。。
eMule收藏集(.emulecollection)文件是您选中的所有链接的列表文件。eMule可以直接下载它们。
按住SHIFT键选择可以选中多个选择框。
可用文件名和大小选择器来选择文件。
文件名选择器帮您根据文件名称或后缀来选择文件。不分大小写。
符号使用:
和:空格( )、+
不包含:-
或:|
转义:一对英文引号("");
匹配开头:^
匹配结尾:$
例如:
选中所有名称中包含有“eMule”或“0.49c”字眼,但不包含有“exe”字眼的:emule|0.49c -exe
选中所有名称的开头是“eMule”,结尾是“0.49c”的:^emule 0.49c$
选中所有名称中带有“eMule 0.49c”的(必须是“eMule 0.49c”,中间没有别的字符,不能是“eMule fake 0.49c”),需要转义:"emule 0.49c"
大小选择器帮您根据文件大小选择文件。