当前位置: 首页 >> 欧美电影 >> 杀毒软件之父迈克菲:心魔、逃亡与疯狂人生[中文字幕].Running.with.the.Devil.The.Wild.World.of.John.McAfee.2022.1080p.NF.WEBRip >> 正文

杀毒软件之父迈克菲:心魔、逃亡与疯狂人生[中文字幕].Running.with.the.Devil.The.Wild.World.of.John.McAfee.2022.1080p.NF.WEBRip

2022年08月25日 21:14:06     电影发布:来源于网络     电影分类:欧美电影     评论(0)    

杀毒软件之父迈克菲:心魔、逃亡与疯狂人生[中文字幕].Running.with.the.Devil.The.Wild.World.of.John.McAfee.2022.1080p.NF.WEBRip.DDP5.1.Atmos.x264-SMURF 4.46GB

183421wlogi2uiq1777l2g.jpg

◎译 名 杀毒软件之父迈克菲:心魔、逃亡与疯狂人生

◎片 名 Running with the Devil: The Wild World of John McAfee

◎年 代 2022

◎产 地 美国

◎类 别 纪录片

◎上映日期 2022-08-24(英国)

◎IMDb链接 https://www.imdb.com/title/tt21379574/

◎豆瓣链接 https://movie.douban.com/subject/36024619/

◎导 演 查理·罗素 Charlie Russell (id:1341779)

◎简 介

通过揭露真相的原始素材和对约翰·迈克菲的采访,本纪录片展现了这个在逃科技先锋在疯狂逃亡岁月中不为人知的一面。

  1. Video

  2. ID : 1

  3. Format : AVC

  4. Format/Info : Advanced Video Codec

  5. Format profile : [email protected]

  6. Format settings : CABAC / 3 Ref Frames

  7. Format settings, CABAC : Yes

  8. Format settings, Reference frames : 3 frames

  9. Codec ID : V_MPEG4/ISO/AVC

  10. Duration : 1 h 45 min

  11. Bit rate mode : Variable

  12. Bit rate : 5 254 kb/s

  13. Nominal bit rate : 5 822 kb/s

  14. Maximum bit rate : 9 285 kb/s

  15. Width : 1 920 pixels

  16. Height : 1 080 pixels

  17. Display aspect ratio : 16:9

  18. Frame rate mode : Constant

  19. Frame rate : 25.000 FPS

  20. Color space : YUV

  21. Chroma subsampling : 4:2:0

  22. Bit depth : 8 bits

  23. Scan type : Progressive

  24. Bits/(Pixel*Frame) : 0.101

  25. Stream size : 3.89 GiB (87%)

  26. Writing library : x264 core 148 r2727 7d026e8

  27. Encoding settings : cabac=1 / ref=3 / deblock=1:0:0 / analyse=0x1:0x111 / me=umh / subme=10 / psy=1 / psy_rd=1.00:0.00 / mixed_ref=1 / me_range=24 / chroma_me=1 / trellis=2 / 8x8dct=0 / cqm=0 / deadzone=21,11 / fast_pskip=1 / chroma_qp_offset=-2 / threads=6 / lookahead_threads=1 / sliced_threads=0 / nr=0 / decimate=1 / interlaced=0 / NTMzNTQ= / bluray_compat=0 / stitchable=1 / constrained_intra=0 / bframes=2 / b_pyramid=0 / b_adapt=2 / b_bias=0 / direct=3 / weightb=1 / open_gop=0 / weightp=2 / keyint=250 / keyint_min=25 / scenecut=0 / intra_refresh=0 / rc_lookahead=50 / rc=2pass / mbtree=1 / bitrate=5822 / ratetol=1.0 / qcomp=0.50 / qpmin=6 / qpmax=51 / qpstep=4 / cplxblur=20.0 / qblur=0.5 / vbv_maxrate=9285 / vbv_bufsize=12380 / nal_hrd=vbr / filler=0 / NTMzNTQ=LmsMAP37EqsCpk / ip_ratio=1.40 / aq=1:1.00

  28. Language : English

  29. Default : Yes

  30. Forced : No


  31. Audio

  32. ID : 2

  33. Format : E-AC-3 JOC

  34. Format/Info : Enhanced AC-3 with Joint Object Coding

  35. Commercial name : Dolby Digital Plus with Dolby Atmos

  36. Codec ID : A_EAC3

  37. Duration : 1 h 45 min

  38. Bit rate mode : Constant

  39. Bit rate : 768 kb/s

  40. Channel(s) : 6 channels

  41. Channel layout : L R C LFE Ls Rs

  42. Sampling rate : 48.0 kHz

  43. Frame rate : 31.250 FPS (1536 SPF)

  44. Compression mode : Lossy

  45. Stream size : 582 MiB (13%)

  46. Language : English

  47. Service kind : Complete Main

  48. Default : Yes

  49. Forced : No

  50. Complexity index : 16

  51. Number of dynamic objects : 15

  52. Bed channel count : 1 channel

  53. Bed channel configuration : LFE


  54. Text #1

  55. ID : 3

  56. Format : UTF-8

  57. Codec ID : S_TEXT/UTF8

  58. Codec ID/Info : UTF-8 Plain Text

  59. Duration : 22 min 10 s

  60. Bit rate : 6 b/s

  61. Frame rate : 0.018 FPS

  62. Count of elements : 24

  63. Stream size : 1.03 KiB (0%)

  64. Title : Forced

  65. Language : English

  66. Default : Yes

  67. Forced : Yes


  68. Text #2

  69. ID : 4

  70. Format : UTF-8

  71. Codec ID : S_TEXT/UTF8

  72. Codec ID/Info : UTF-8 Plain Text

  73. Duration : 1 h 43 min

  74. Bit rate : 89 b/s

  75. Frame rate : 0.274 FPS

  76. Count of elements : 1705

  77. Stream size : 68.2 KiB (0%)

  78. Language : English

  79. Default : No

  80. Forced : No


  81. Text #3

  82. ID : 5

  83. Format : UTF-8

  84. Codec ID : S_TEXT/UTF8

  85. Codec ID/Info : UTF-8 Plain Text

  86. Duration : 1 h 44 min

  87. Bit rate : 100 b/s

  88. Frame rate : 0.302 FPS

  89. Count of elements : 1888

  90. Stream size : 76.6 KiB (0%)

  91. Title : SDH

  92. Language : English

  93. Default : No

  94. Forced : No


  95. Text #4

  96. ID : 6

  97. Format : UTF-8

  98. Codec ID : S_TEXT/UTF8

  99. Codec ID/Info : UTF-8 Plain Text

  100. Duration : 1 h 44 min

  101. Bit rate : 130 b/s

  102. Frame rate : 0.273 FPS

  103. Count of elements : 1714

  104. Stream size : 100 KiB (0%)

  105. Language : Arabic

  106. Default : No

  107. Forced : No


  108. Text #5

  109. ID : 7

  110. Format : UTF-8

  111. Codec ID : S_TEXT/UTF8

  112. Codec ID/Info : UTF-8 Plain Text

  113. Duration : 1 h 44 min

  114. Bit rate : 79 b/s

  115. Frame rate : 0.271 FPS

  116. Count of elements : 1703

  117. Stream size : 60.7 KiB (0%)

  118. Language : Czech

  119. Default : No

  120. Forced : No


  121. Text #6

  122. ID : 8

  123. Format : UTF-8

  124. Codec ID : S_TEXT/UTF8

  125. Codec ID/Info : UTF-8 Plain Text

  126. Duration : 1 h 44 min

  127. Bit rate : 76 b/s

  128. Frame rate : 0.270 FPS

  129. Count of elements : 1694

  130. Stream size : 58.8 KiB (0%)

  131. Language : Danish

  132. Default : No

  133. Forced : No


  134. Text #7

  135. ID : 9

  136. Format : UTF-8

  137. Codec ID : S_TEXT/UTF8

  138. Codec ID/Info : UTF-8 Plain Text

  139. Duration : 1 h 44 min

  140. Bit rate : 79 b/s

  141. Frame rate : 0.270 FPS

  142. Count of elements : 1699

  143. Stream size : 61.2 KiB (0%)

  144. Language : German

  145. Default : No

  146. Forced : No


  147. Text #8

  148. ID : 10

  149. Format : UTF-8

  150. Codec ID : S_TEXT/UTF8

  151. Codec ID/Info : UTF-8 Plain Text

  152. Duration : 1 h 44 min

  153. Bit rate : 139 b/s

  154. Frame rate : 0.272 FPS

  155. Count of elements : 1710

  156. Stream size : 107 KiB (0%)

  157. Language : Greek

  158. Default : No

  159. Forced : No


  160. Text #9

  161. ID : 11

  162. Format : UTF-8

  163. Codec ID : S_TEXT/UTF8

  164. Codec ID/Info : UTF-8 Plain Text

  165. Duration : 1 h 44 min

  166. Bit rate : 80 b/s

  167. Frame rate : 0.268 FPS

  168. Count of elements : 1687

  169. Stream size : 61.4 KiB (0%)

  170. Language : Spanish

  171. Default : No

  172. Forced : No


  173. Text #10

  174. ID : 12

  175. Format : UTF-8

  176. Codec ID : S_TEXT/UTF8

  177. Codec ID/Info : UTF-8 Plain Text

  178. Duration : 1 h 44 min

  179. Bit rate : 79 b/s

  180. Frame rate : 0.268 FPS

  181. Count of elements : 1684

  182. Stream size : 61.1 KiB (0%)

  183. Title : European

  184. Language : Spanish

  185. Default : No

  186. Forced : No


  187. Text #11

  188. ID : 13

  189. Format : UTF-8

  190. Codec ID : S_TEXT/UTF8

  191. Codec ID/Info : UTF-8 Plain Text

  192. Duration : 1 h 44 min

  193. Bit rate : 73 b/s

  194. Frame rate : 0.270 FPS

  195. Count of elements : 1698

  196. Stream size : 56.5 KiB (0%)

  197. Language : Finnish

  198. Default : No

  199. Forced : No


  200. Text #12

  201. ID : 14

  202. Format : UTF-8

  203. Codec ID : S_TEXT/UTF8

  204. Codec ID/Info : UTF-8 Plain Text

  205. Duration : 1 h 44 min

  206. Bit rate : 80 b/s

  207. Frame rate : 0.270 FPS

  208. Count of elements : 1697

  209. Stream size : 62.0 KiB (0%)

  210. Language : French

  211. Default : No

  212. Forced : No


  213. Text #13

  214. ID : 15

  215. Format : UTF-8

  216. Codec ID : S_TEXT/UTF8

  217. Codec ID/Info : UTF-8 Plain Text

  218. Duration : 1 h 44 min

  219. Bit rate : 116 b/s

  220. Frame rate : 0.273 FPS

  221. Count of elements : 1714

  222. Stream size : 89.2 KiB (0%)

  223. Language : Hebrew

  224. Default : No

  225. Forced : No


  226. Text #14

  227. ID : 16

  228. Format : UTF-8

  229. Codec ID : S_TEXT/UTF8

  230. Codec ID/Info : UTF-8 Plain Text

  231. Duration : 1 h 44 min

  232. Bit rate : 74 b/s

  233. Frame rate : 0.271 FPS

  234. Count of elements : 1703

  235. Stream size : 57.4 KiB (0%)

  236. Language : Croatian

  237. Default : No

  238. Forced : No


  239. Text #15

  240. ID : 17

  241. Format : UTF-8

  242. Codec ID : S_TEXT/UTF8

  243. Codec ID/Info : UTF-8 Plain Text

  244. Duration : 1 h 44 min

  245. Bit rate : 79 b/s

  246. Frame rate : 0.271 FPS

  247. Count of elements : 1703

  248. Stream size : 60.9 KiB (0%)

  249. Language : Hungarian

  250. Default : No

  251. Forced : No


  252. Text #16

  253. ID : 18

  254. Format : UTF-8

  255. Codec ID : S_TEXT/UTF8

  256. Codec ID/Info : UTF-8 Plain Text

  257. Duration : 1 h 44 min

  258. Bit rate : 69 b/s

  259. Frame rate : 0.270 FPS

  260. Count of elements : 1695

  261. Stream size : 53.5 KiB (0%)

  262. Language : Indonesian

  263. Default : No

  264. Forced : No


  265. Text #17

  266. ID : 19

  267. Format : UTF-8

  268. Codec ID : S_TEXT/UTF8

  269. Codec ID/Info : UTF-8 Plain Text

  270. Duration : 1 h 44 min

  271. Bit rate : 79 b/s

  272. Frame rate : 0.271 FPS

  273. Count of elements : 1700

  274. Stream size : 60.9 KiB (0%)

  275. Language : Italian

  276. Default : No

  277. Forced : No


  278. Text #18

  279. ID : 20

  280. Format : UTF-8

  281. Codec ID : S_TEXT/UTF8

  282. Codec ID/Info : UTF-8 Plain Text

  283. Duration : 1 h 44 min

  284. Bit rate : 74 b/s

  285. Frame rate : 0.244 FPS

  286. Count of elements : 1533

  287. Stream size : 57.0 KiB (0%)

  288. Language : Japanese

  289. Default : No

  290. Forced : No


  291. Text #19

  292. ID : 21

  293. Format : UTF-8

  294. Codec ID : S_TEXT/UTF8

  295. Codec ID/Info : UTF-8 Plain Text

  296. Duration : 1 h 44 min

  297. Bit rate : 107 b/s

  298. Frame rate : 0.273 FPS

  299. Count of elements : 1714

  300. Stream size : 82.1 KiB (0%)

  301. Language : Korean

  302. Default : No

  303. Forced : No


  304. Text #20

  305. ID : 22

  306. Format : UTF-8

  307. Codec ID : S_TEXT/UTF8

  308. Codec ID/Info : UTF-8 Plain Text

  309. Duration : 1 h 44 min

  310. Bit rate : 74 b/s

  311. Frame rate : 0.271 FPS

  312. Count of elements : 1701

  313. Stream size : 57.2 KiB (0%)

  314. Language : Malay

  315. Default : No

  316. Forced : No


  317. Text #21

  318. ID : 23

  319. Format : UTF-8

  320. Codec ID : S_TEXT/UTF8

  321. Codec ID/Info : UTF-8 Plain Text

  322. Duration : 1 h 44 min

  323. Bit rate : 77 b/s

  324. Frame rate : 0.270 FPS

  325. Count of elements : 1695

  326. Stream size : 59.5 KiB (0%)

  327. Language : Norwegian Bokmal

  328. Default : No

  329. Forced : No


  330. Text #22

  331. ID : 24

  332. Format : UTF-8

  333. Codec ID : S_TEXT/UTF8

  334. Codec ID/Info : UTF-8 Plain Text

  335. Duration : 1 h 44 min

  336. Bit rate : 68 b/s

  337. Frame rate : 0.262 FPS

  338. Count of elements : 1647

  339. Stream size : 52.5 KiB (0%)

  340. Language : Dutch

  341. Default : No

  342. Forced : No


  343. Text #23

  344. ID : 25

  345. Format : UTF-8

  346. Codec ID : S_TEXT/UTF8

  347. Codec ID/Info : UTF-8 Plain Text

  348. Duration : 1 h 44 min

  349. Bit rate : 78 b/s

  350. Frame rate : 0.270 FPS

  351. Count of elements : 1696

  352. Stream size : 59.9 KiB (0%)

  353. Language : Polish

  354. Default : No

  355. Forced : No


  356. Text #24

  357. ID : 26

  358. Format : UTF-8

  359. Codec ID : S_TEXT/UTF8

  360. Codec ID/Info : UTF-8 Plain Text

  361. Duration : 1 h 44 min

  362. Bit rate : 79 b/s

  363. Frame rate : 0.271 FPS

  364. Count of elements : 1702

  365. Stream size : 61.0 KiB (0%)

  366. Language : Portuguese

  367. Default : No

  368. Forced : No


  369. Text #25

  370. ID : 27

  371. Format : UTF-8

  372. Codec ID : S_TEXT/UTF8

  373. Codec ID/Info : UTF-8 Plain Text

  374. Duration : 1 h 44 min

  375. Bit rate : 78 b/s

  376. Frame rate : 0.271 FPS

  377. Count of elements : 1702

  378. Stream size : 60.2 KiB (0%)

  379. Title : Brazilian

  380. Language : Portuguese

  381. Default : No

  382. Forced : No


  383. Text #26

  384. ID : 28

  385. Format : UTF-8

  386. Codec ID : S_TEXT/UTF8

  387. Codec ID/Info : UTF-8 Plain Text

  388. Duration : 1 h 44 min

  389. Bit rate : 92 b/s

  390. Frame rate : 0.270 FPS

  391. Count of elements : 1698

  392. Stream size : 71.1 KiB (0%)

  393. Language : Romanian

  394. Default : No

  395. Forced : No


  396. Text #27

  397. ID : 29

  398. Format : UTF-8

  399. Codec ID : S_TEXT/UTF8

  400. Codec ID/Info : UTF-8 Plain Text

  401. Duration : 1 h 44 min

  402. Bit rate : 132 b/s

  403. Frame rate : 0.273 FPS

  404. Count of elements : 1713

  405. Stream size : 102 KiB (0%)

  406. Language : Russian

  407. Default : No

  408. Forced : No


  409. Text #28

  410. ID : 30

  411. Format : UTF-8

  412. Codec ID : S_TEXT/UTF8

  413. Codec ID/Info : UTF-8 Plain Text

  414. Duration : 1 h 44 min

  415. Bit rate : 78 b/s

  416. Frame rate : 0.270 FPS

  417. Count of elements : 1695

  418. Stream size : 59.9 KiB (0%)

  419. Language : Swedish

  420. Default : No

  421. Forced : No


  422. Text #29

  423. ID : 31

  424. Format : UTF-8

  425. Codec ID : S_TEXT/UTF8

  426. Codec ID/Info : UTF-8 Plain Text

  427. Duration : 1 h 44 min

  428. Bit rate : 210 b/s

  429. Frame rate : 0.273 FPS

  430. Count of elements : 1714

  431. Stream size : 162 KiB (0%)

  432. Language : Thai

  433. Default : No

  434. Forced : No


  435. Text #30

  436. ID : 32

  437. Format : UTF-8

  438. Codec ID : S_TEXT/UTF8

  439. Codec ID/Info : UTF-8 Plain Text

  440. Duration : 1 h 44 min

  441. Bit rate : 83 b/s

  442. Frame rate : 0.271 FPS

  443. Count of elements : 1704

  444. Stream size : 63.8 KiB (0%)

  445. Language : Turkish

  446. Default : No

  447. Forced : No


  448. Text #31

  449. ID : 33

  450. Format : UTF-8

  451. Codec ID : S_TEXT/UTF8

  452. Codec ID/Info : UTF-8 Plain Text

  453. Duration : 1 h 44 min

  454. Bit rate : 137 b/s

  455. Frame rate : 0.272 FPS

  456. Count of elements : 1712

  457. Stream size : 105 KiB (0%)

  458. Language : Ukrainian

  459. Default : No

  460. Forced : No


  461. Text #32

  462. ID : 34

  463. Format : UTF-8

  464. Codec ID : S_TEXT/UTF8

  465. Codec ID/Info : UTF-8 Plain Text

  466. Duration : 1 h 44 min

  467. Bit rate : 107 b/s

  468. Frame rate : 0.271 FPS

  469. Count of elements : 1704

  470. Stream size : 82.3 KiB (0%)

  471. Language : Vietnamese

  472. Default : No

  473. Forced : No


  474. Text #33

  475. ID : 35

  476. Format : UTF-8

  477. Codec ID : S_TEXT/UTF8

  478. Codec ID/Info : UTF-8 Plain Text

  479. Duration : 1 h 44 min

  480. Bit rate : 84 b/s

  481. Frame rate : 0.273 FPS

  482. Count of elements : 1714

  483. Stream size : 64.5 KiB (0%)

  484. Title : Simplified

  485. Language : Chinese

  486. Default : No

  487. Forced : No


  488. Text #34

  489. ID : 36

  490. Format : UTF-8

  491. Codec ID : S_TEXT/UTF8

  492. Codec ID/Info : UTF-8 Plain Text

  493. Duration : 1 h 44 min

  494. Bit rate : 73 b/s

  495. Frame rate : 0.273 FPS

  496. Count of elements : 1714

  497. Stream size : 56.5 KiB (0%)

  498. Title : Traditional

  499. Language : Chinese

  500. Default : No

  501. Forced : No



文件下载


除非特别注明,本文『杀毒软件之父迈克菲:心魔、逃亡与疯狂人生[中文字幕].Running.with.the.Devil.The.Wild.World.of.John.McAfee.2022.1080p.NF.WEBRip』来源于互联网机器人自动抓取,非本站原创。 浮游电影网不对本文拥有版权,如有侵犯,请联系邮箱:fuyouu#yandex.com[#换成@]投诉。我们会在15个工作日内删除。 但烦请转载时请标明出处:“本文转载于『浮游电影网』,原文地址:https://www.fuyouu.com/22797.html

评论吧骚年!

发表你的见解   

昵称*

E-mail*(建议输入,以便收到博主回复的提示邮件)

验证码*

您可以使用eMule或eMule Mod(Windows)、aMule(Win、Linux、Mac)等软件下载eD2k链接。。
eMule收藏集(.emulecollection)文件是您选中的所有链接的列表文件。eMule可以直接下载它们。
按住SHIFT键选择可以选中多个选择框。
可用文件名和大小选择器来选择文件。
文件名选择器帮您根据文件名称或后缀来选择文件。不分大小写。
符号使用:
和:空格( )、+
不包含:-
或:|
转义:一对英文引号("");
匹配开头:^
匹配结尾:$
例如:
选中所有名称中包含有“eMule”或“0.49c”字眼,但不包含有“exe”字眼的:emule|0.49c -exe
选中所有名称的开头是“eMule”,结尾是“0.49c”的:^emule 0.49c$
选中所有名称中带有“eMule 0.49c”的(必须是“eMule 0.49c”,中间没有别的字符,不能是“eMule fake 0.49c”),需要转义:"emule 0.49c"
大小选择器帮您根据文件大小选择文件。