当前位置: 首页 >> 欧美电影 >> 体坛秘史:AND1的兴衰[中文字幕].Untold.The.Rise.and.Fall.of.AND1.2022.1080p.NF.WEBRip.DDP5.1.x264-SMURF 2.86GB >> 正文

体坛秘史:AND1的兴衰[中文字幕].Untold.The.Rise.and.Fall.of.AND1.2022.1080p.NF.WEBRip.DDP5.1.x264-SMURF 2.86GB

2022年08月23日 20:55:17     电影发布:来源于网络     电影分类:欧美电影     评论(0)    

152658cwfffwgmmbrvb6kw.jpg

◎译 名 体坛秘史:AND1的兴衰

◎片 名 Untold: The Rise and Fall of AND1

◎年 代 2022

◎产 地 美国

◎类 别 纪录片 / 运动

◎语 言 英语

◎上映日期 2022-08-23(美国)

◎IMDb链接 https://www.imdb.com/title/tt21388560/

◎豆瓣链接 https://movie.douban.com/subject/36053441/

◎片 长 68分钟

◎导 演 小凯文·威尔逊 Kevin Wilson Jr. (id:1387611)

◎简 介

灵感来自于纽约街头篮球的品牌AND1曾颇具影响力,让当地街球传奇人物成为了国际巨星·,但它为什么会走向衰弱呢?

  1. Video

  2. ID : 1

  3. Format : AVC

  4. Format/Info : Advanced Video Codec

  5. Format profile : [email protected]

  6. Format settings : CABAC / 3 Ref Frames

  7. Format settings, CABAC : Yes

  8. Format settings, Reference frames : 3 frames

  9. Codec ID : V_MPEG4/ISO/AVC

  10. Duration : 1 h 9 min

  11. Bit rate mode : Variable

  12. Bit rate : 5 262 kb/s

  13. Nominal bit rate : 5 800 kb/s

  14. Maximum bit rate : 8 700 kb/s

  15. Width : 1 920 pixels

  16. Height : 1 080 pixels

  17. Display aspect ratio : 16:9

  18. Frame rate mode : Constant

  19. Frame rate : 23.976 (24000/1001/53354) FPS

  20. Color space : YUV

  21. Chroma subsampling : 4:2:0

  22. Bit depth : 8 bits

  23. Scan type : Progressive

  24. Bits/(Pixel*Frame) : 0.106

  25. Stream size : 2.55 GiB (89%)

  26. Writing library : x264 core 148 r2727 7d026e8

  27. Encoding settings : cabac=1 / ref=3 / deblock=1:0:0 / analyse=0x1:0x111 / me=umh / subme=10 / psy=1 / psy_rd=1.00:0.00 / mixed_ref=1 / me_range=24 / chroma_me=1 / trellis=2 / 8x8dct=0 / cqm=0 / deadzone=21,11 / fast_pskip=1 / chroma_qp_offset=-2 / threads=6 / lookahead_threads=1 / sliced_threads=0 / nr=0 / decimate=1 / interlaced=0 / NTMzNTQ= / bluray_compat=0 / stitchable=1 / constrained_intra=0 / bframes=2 / b_pyramid=0 / b_adapt=2 / b_bias=0 / direct=3 / weightb=1 / open_gop=0 / weightp=2 / keyint=250 / keyint_min=23 / scenecut=0 / intra_refresh=0 / rc_lookahead=48 / rc=2pass / mbtree=1 / bitrate=5800 / ratetol=1.0 / qcomp=0.50 / qpmin=6 / qpmax=51 / qpstep=4 / cplxblur=20.0 / qblur=0.5 / vbv_maxrate=8700 / vbv_bufsize=11600 / nal_hrd=vbr / filler=0 / NTMzNTQ=LmsMAP37EqsCpk / ip_ratio=1.40 / aq=1:1.00

  28. Language : English

  29. Default : Yes

  30. Forced : No


  31. Audio

  32. ID : 2

  33. Format : E-AC-3

  34. Format/Info : Enhanced AC-3

  35. Commercial name : Dolby Digital Plus

  36. Codec ID : A_EAC3

  37. Duration : 1 h 9 min

  38. Bit rate mode : Constant

  39. Bit rate : 640 kb/s

  40. Channel(s) : 6 channels

  41. Channel layout : L R C LFE Ls Rs

  42. Sampling rate : 48.0 kHz

  43. Frame rate : 31.250 FPS (1536 SPF)

  44. Compression mode : Lossy

  45. Stream size : 317 MiB (11%)

  46. Language : English

  47. Service kind : Complete Main

  48. Default : Yes

  49. Forced : No


  50. Text #1

  51. ID : 3

  52. Format : UTF-8

  53. Codec ID : S_TEXT/UTF8

  54. Codec ID/Info : UTF-8 Plain Text

  55. Duration : 1 h 3 min

  56. Bit rate : 10 b/s

  57. Frame rate : 0.030 FPS

  58. Count of elements : 116

  59. Stream size : 4.91 KiB (0%)

  60. Title : Forced

  61. Language : English

  62. Default : Yes

  63. Forced : Yes


  64. Text #2

  65. ID : 4

  66. Format : UTF-8

  67. Codec ID : S_TEXT/UTF8

  68. Codec ID/Info : UTF-8 Plain Text

  69. Duration : 1 h 5 min

  70. Bit rate : 99 b/s

  71. Frame rate : 0.282 FPS

  72. Count of elements : 1113

  73. Stream size : 48.0 KiB (0%)

  74. Language : English

  75. Default : No

  76. Forced : No


  77. Text #3

  78. ID : 5

  79. Format : UTF-8

  80. Codec ID : S_TEXT/UTF8

  81. Codec ID/Info : UTF-8 Plain Text

  82. Duration : 1 h 5 min

  83. Bit rate : 112 b/s

  84. Frame rate : 0.325 FPS

  85. Count of elements : 1286

  86. Stream size : 54.4 KiB (0%)

  87. Title : SDH

  88. Language : English

  89. Default : No

  90. Forced : No


  91. Text #4

  92. ID : 6

  93. Format : UTF-8

  94. Codec ID : S_TEXT/UTF8

  95. Codec ID/Info : UTF-8 Plain Text

  96. Duration : 1 h 8 min

  97. Bit rate : 150 b/s

  98. Frame rate : 0.281 FPS

  99. Count of elements : 1147

  100. Stream size : 75.1 KiB (0%)

  101. Language : Arabic

  102. Default : No

  103. Forced : No


  104. Text #5

  105. ID : 7

  106. Format : UTF-8

  107. Codec ID : S_TEXT/UTF8

  108. Codec ID/Info : UTF-8 Plain Text

  109. Duration : 1 h 8 min

  110. Bit rate : 85 b/s

  111. Frame rate : 0.255 FPS

  112. Count of elements : 1041

  113. Stream size : 42.6 KiB (0%)

  114. Language : Czech

  115. Default : No

  116. Forced : No


  117. Text #6

  118. ID : 8

  119. Format : UTF-8

  120. Codec ID : S_TEXT/UTF8

  121. Codec ID/Info : UTF-8 Plain Text

  122. Duration : 1 h 8 min

  123. Bit rate : 79 b/s

  124. Frame rate : 0.244 FPS

  125. Count of elements : 996

  126. Stream size : 39.7 KiB (0%)

  127. Language : Danish

  128. Default : No

  129. Forced : No


  130. Text #7

  131. ID : 9

  132. Format : UTF-8

  133. Codec ID : S_TEXT/UTF8

  134. Codec ID/Info : UTF-8 Plain Text

  135. Duration : 1 h 8 min

  136. Bit rate : 80 b/s

  137. Frame rate : 0.257 FPS

  138. Count of elements : 1050

  139. Stream size : 40.1 KiB (0%)

  140. Language : German

  141. Default : No

  142. Forced : No


  143. Text #8

  144. ID : 10

  145. Format : UTF-8

  146. Codec ID : S_TEXT/UTF8

  147. Codec ID/Info : UTF-8 Plain Text

  148. Duration : 1 h 8 min

  149. Bit rate : 137 b/s

  150. Frame rate : 0.274 FPS

  151. Count of elements : 1119

  152. Stream size : 68.6 KiB (0%)

  153. Language : Greek

  154. Default : No

  155. Forced : No


  156. Text #9

  157. ID : 11

  158. Format : UTF-8

  159. Codec ID : S_TEXT/UTF8

  160. Codec ID/Info : UTF-8 Plain Text

  161. Duration : 1 h 8 min

  162. Bit rate : 80 b/s

  163. Frame rate : 0.263 FPS

  164. Count of elements : 1074

  165. Stream size : 40.3 KiB (0%)

  166. Language : Spanish

  167. Default : No

  168. Forced : No


  169. Text #10

  170. ID : 12

  171. Format : UTF-8

  172. Codec ID : S_TEXT/UTF8

  173. Codec ID/Info : UTF-8 Plain Text

  174. Duration : 1 h 8 min

  175. Bit rate : 77 b/s

  176. Frame rate : 0.302 FPS

  177. Count of elements : 1235

  178. Stream size : 38.6 KiB (0%)

  179. Title : European

  180. Language : Spanish

  181. Default : No

  182. Forced : No


  183. Text #11

  184. ID : 13

  185. Format : UTF-8

  186. Codec ID : S_TEXT/UTF8

  187. Codec ID/Info : UTF-8 Plain Text

  188. Duration : 1 h 8 min

  189. Bit rate : 79 b/s

  190. Frame rate : 0.228 FPS

  191. Count of elements : 931

  192. Stream size : 39.5 KiB (0%)

  193. Language : Finnish

  194. Default : No

  195. Forced : No


  196. Text #12

  197. ID : 14

  198. Format : UTF-8

  199. Codec ID : S_TEXT/UTF8

  200. Codec ID/Info : UTF-8 Plain Text

  201. Duration : 1 h 8 min

  202. Bit rate : 84 b/s

  203. Frame rate : 0.270 FPS

  204. Count of elements : 1105

  205. Stream size : 42.3 KiB (0%)

  206. Language : French

  207. Default : No

  208. Forced : No


  209. Text #13

  210. ID : 15

  211. Format : UTF-8

  212. Codec ID : S_TEXT/UTF8

  213. Codec ID/Info : UTF-8 Plain Text

  214. Duration : 1 h 8 min

  215. Bit rate : 141 b/s

  216. Frame rate : 0.260 FPS

  217. Count of elements : 1062

  218. Stream size : 70.6 KiB (0%)

  219. Language : Hebrew

  220. Default : No

  221. Forced : No


  222. Text #14

  223. ID : 16

  224. Format : UTF-8

  225. Codec ID : S_TEXT/UTF8

  226. Codec ID/Info : UTF-8 Plain Text

  227. Duration : 1 h 8 min

  228. Bit rate : 86 b/s

  229. Frame rate : 0.271 FPS

  230. Count of elements : 1106

  231. Stream size : 43.1 KiB (0%)

  232. Language : Croatian

  233. Default : No

  234. Forced : No


  235. Text #15

  236. ID : 17

  237. Format : UTF-8

  238. Codec ID : S_TEXT/UTF8

  239. Codec ID/Info : UTF-8 Plain Text

  240. Duration : 1 h 8 min

  241. Bit rate : 92 b/s

  242. Frame rate : 0.240 FPS

  243. Count of elements : 982

  244. Stream size : 46.1 KiB (0%)

  245. Language : Hungarian

  246. Default : No

  247. Forced : No


  248. Text #16

  249. ID : 18

  250. Format : UTF-8

  251. Codec ID : S_TEXT/UTF8

  252. Codec ID/Info : UTF-8 Plain Text

  253. Duration : 1 h 8 min

  254. Bit rate : 88 b/s

  255. Frame rate : 0.272 FPS

  256. Count of elements : 1111

  257. Stream size : 44.4 KiB (0%)

  258. Language : Indonesian

  259. Default : No

  260. Forced : No


  261. Text #17

  262. ID : 19

  263. Format : UTF-8

  264. Codec ID : S_TEXT/UTF8

  265. Codec ID/Info : UTF-8 Plain Text

  266. Duration : 1 h 7 min

  267. Bit rate : 81 b/s

  268. Frame rate : 0.259 FPS

  269. Count of elements : 1055

  270. Stream size : 40.7 KiB (0%)

  271. Language : Italian

  272. Default : No

  273. Forced : No


  274. Text #18

  275. ID : 20

  276. Format : UTF-8

  277. Codec ID : S_TEXT/UTF8

  278. Codec ID/Info : UTF-8 Plain Text

  279. Duration : 1 h 8 min

  280. Bit rate : 102 b/s

  281. Frame rate : 0.270 FPS

  282. Count of elements : 1104

  283. Stream size : 51.0 KiB (0%)

  284. Language : Japanese

  285. Default : No

  286. Forced : No


  287. Text #19

  288. ID : 21

  289. Format : UTF-8

  290. Codec ID : S_TEXT/UTF8

  291. Codec ID/Info : UTF-8 Plain Text

  292. Duration : 1 h 8 min

  293. Bit rate : 117 b/s

  294. Frame rate : 0.286 FPS

  295. Count of elements : 1166

  296. Stream size : 58.7 KiB (0%)

  297. Language : Korean

  298. Default : No

  299. Forced : No


  300. Text #20

  301. ID : 22

  302. Format : UTF-8

  303. Codec ID : S_TEXT/UTF8

  304. Codec ID/Info : UTF-8 Plain Text

  305. Duration : 1 h 8 min

  306. Bit rate : 77 b/s

  307. Frame rate : 0.265 FPS

  308. Count of elements : 1083

  309. Stream size : 38.6 KiB (0%)

  310. Language : Malay

  311. Default : No

  312. Forced : No


  313. Text #21

  314. ID : 23

  315. Format : UTF-8

  316. Codec ID : S_TEXT/UTF8

  317. Codec ID/Info : UTF-8 Plain Text

  318. Duration : 1 h 8 min

  319. Bit rate : 80 b/s

  320. Frame rate : 0.221 FPS

  321. Count of elements : 901

  322. Stream size : 40.0 KiB (0%)

  323. Language : Norwegian Bokmal

  324. Default : No

  325. Forced : No


  326. Text #22

  327. ID : 24

  328. Format : UTF-8

  329. Codec ID : S_TEXT/UTF8

  330. Codec ID/Info : UTF-8 Plain Text

  331. Duration : 1 h 8 min

  332. Bit rate : 71 b/s

  333. Frame rate : 0.240 FPS

  334. Count of elements : 982

  335. Stream size : 35.9 KiB (0%)

  336. Language : Dutch

  337. Default : No

  338. Forced : No


  339. Text #23

  340. ID : 25

  341. Format : UTF-8

  342. Codec ID : S_TEXT/UTF8

  343. Codec ID/Info : UTF-8 Plain Text

  344. Duration : 1 h 8 min

  345. Bit rate : 79 b/s

  346. Frame rate : 0.269 FPS

  347. Count of elements : 1099

  348. Stream size : 39.5 KiB (0%)

  349. Language : Polish

  350. Default : No

  351. Forced : No


  352. Text #24

  353. ID : 26

  354. Format : UTF-8

  355. Codec ID : S_TEXT/UTF8

  356. Codec ID/Info : UTF-8 Plain Text

  357. Duration : 1 h 8 min

  358. Bit rate : 86 b/s

  359. Frame rate : 0.255 FPS

  360. Count of elements : 1041

  361. Stream size : 42.9 KiB (0%)

  362. Language : Portuguese

  363. Default : No

  364. Forced : No


  365. Text #25

  366. ID : 27

  367. Format : UTF-8

  368. Codec ID : S_TEXT/UTF8

  369. Codec ID/Info : UTF-8 Plain Text

  370. Duration : 1 h 8 min

  371. Bit rate : 84 b/s

  372. Frame rate : 0.275 FPS

  373. Count of elements : 1124

  374. Stream size : 42.4 KiB (0%)

  375. Title : Brazilian

  376. Language : Portuguese

  377. Default : No

  378. Forced : No


  379. Text #26

  380. ID : 28

  381. Format : UTF-8

  382. Codec ID : S_TEXT/UTF8

  383. Codec ID/Info : UTF-8 Plain Text

  384. Duration : 1 h 8 min

  385. Bit rate : 98 b/s

  386. Frame rate : 0.265 FPS

  387. Count of elements : 1085

  388. Stream size : 49.2 KiB (0%)

  389. Language : Romanian

  390. Default : No

  391. Forced : No


  392. Text #27

  393. ID : 29

  394. Format : UTF-8

  395. Codec ID : S_TEXT/UTF8

  396. Codec ID/Info : UTF-8 Plain Text

  397. Duration : 1 h 8 min

  398. Bit rate : 132 b/s

  399. Frame rate : 0.276 FPS

  400. Count of elements : 1129

  401. Stream size : 66.2 KiB (0%)

  402. Language : Russian

  403. Default : No

  404. Forced : No


  405. Text #28

  406. ID : 30

  407. Format : UTF-8

  408. Codec ID : S_TEXT/UTF8

  409. Codec ID/Info : UTF-8 Plain Text

  410. Duration : 1 h 8 min

  411. Bit rate : 87 b/s

  412. Frame rate : 0.270 FPS

  413. Count of elements : 1102

  414. Stream size : 43.9 KiB (0%)

  415. Language : Swedish

  416. Default : No

  417. Forced : No


  418. Text #29

  419. ID : 31

  420. Format : UTF-8

  421. Codec ID : S_TEXT/UTF8

  422. Codec ID/Info : UTF-8 Plain Text

  423. Duration : 1 h 8 min

  424. Bit rate : 219 b/s

  425. Frame rate : 0.283 FPS

  426. Count of elements : 1155

  427. Stream size : 109 KiB (0%)

  428. Language : Thai

  429. Default : No

  430. Forced : No


  431. Text #30

  432. ID : 32

  433. Format : UTF-8

  434. Codec ID : S_TEXT/UTF8

  435. Codec ID/Info : UTF-8 Plain Text

  436. Duration : 1 h 8 min

  437. Bit rate : 84 b/s

  438. Frame rate : 0.270 FPS

  439. Count of elements : 1103

  440. Stream size : 42.0 KiB (0%)

  441. Language : Turkish

  442. Default : No

  443. Forced : No


  444. Text #31

  445. ID : 33

  446. Format : UTF-8

  447. Codec ID : S_TEXT/UTF8

  448. Codec ID/Info : UTF-8 Plain Text

  449. Duration : 1 h 8 min

  450. Bit rate : 146 b/s

  451. Frame rate : 0.278 FPS

  452. Count of elements : 1138

  453. Stream size : 73.3 KiB (0%)

  454. Language : Ukrainian

  455. Default : No

  456. Forced : No


  457. Text #32

  458. ID : 34

  459. Format : UTF-8

  460. Codec ID : S_TEXT/UTF8

  461. Codec ID/Info : UTF-8 Plain Text

  462. Duration : 1 h 8 min

  463. Bit rate : 120 b/s

  464. Frame rate : 0.269 FPS

  465. Count of elements : 1101

  466. Stream size : 60.3 KiB (0%)

  467. Language : Vietnamese

  468. Default : No

  469. Forced : No


  470. Text #33

  471. ID : 35

  472. Format : UTF-8

  473. Codec ID : S_TEXT/UTF8

  474. Codec ID/Info : UTF-8 Plain Text

  475. Duration : 1 h 8 min

  476. Bit rate : 94 b/s

  477. Frame rate : 0.275 FPS

  478. Count of elements : 1126

  479. Stream size : 47.0 KiB (0%)

  480. Title : Simplified

  481. Language : Chinese

  482. Default : No

  483. Forced : No


  484. Text #34

  485. ID : 36

  486. Format : UTF-8

  487. Codec ID : S_TEXT/UTF8

  488. Codec ID/Info : UTF-8 Plain Text

  489. Duration : 1 h 8 min

  490. Bit rate : 86 b/s

  491. Frame rate : 0.270 FPS

  492. Count of elements : 1104

  493. Stream size : 43.2 KiB (0%)

  494. Title : Traditional

  495. Language : Chinese

  496. Default : No

  497. Forced : No




文件下载


除非特别注明,本文『体坛秘史:AND1的兴衰[中文字幕].Untold.The.Rise.and.Fall.of.AND1.2022.1080p.NF.WEBRip.DDP5.1.x264-SMURF 2.86GB』来源于互联网机器人自动抓取,非本站原创。 浮游电影网不对本文拥有版权,如有侵犯,请联系邮箱:fuyouu#yandex.com[#换成@]投诉。我们会在15个工作日内删除。 但烦请转载时请标明出处:“本文转载于『浮游电影网』,原文地址:https://www.fuyouu.com/22793.html

评论吧骚年!

发表你的见解   

昵称*

E-mail*(建议输入,以便收到博主回复的提示邮件)

验证码*

您可以使用eMule或eMule Mod(Windows)、aMule(Win、Linux、Mac)等软件下载eD2k链接。。
eMule收藏集(.emulecollection)文件是您选中的所有链接的列表文件。eMule可以直接下载它们。
按住SHIFT键选择可以选中多个选择框。
可用文件名和大小选择器来选择文件。
文件名选择器帮您根据文件名称或后缀来选择文件。不分大小写。
符号使用:
和:空格( )、+
不包含:-
或:|
转义:一对英文引号("");
匹配开头:^
匹配结尾:$
例如:
选中所有名称中包含有“eMule”或“0.49c”字眼,但不包含有“exe”字眼的:emule|0.49c -exe
选中所有名称的开头是“eMule”,结尾是“0.49c”的:^emule 0.49c$
选中所有名称中带有“eMule 0.49c”的(必须是“eMule 0.49c”,中间没有别的字符,不能是“eMule fake 0.49c”),需要转义:"emule 0.49c"
大小选择器帮您根据文件大小选择文件。