当前位置: 首页 >> 欧美电影 >> 壮志凌云2:独行侠[中文字幕].Top.Gun.Maverick.2022.IMAX.2160p.AMZN.WEB-DL.x265.10bit.HDR10Plus.DDP5.1.Atmos-SMURF >> 正文

壮志凌云2:独行侠[中文字幕].Top.Gun.Maverick.2022.IMAX.2160p.AMZN.WEB-DL.x265.10bit.HDR10Plus.DDP5.1.Atmos-SMURF

2022年08月23日 20:53:56     电影发布:来源于网络     电影分类:欧美电影     评论(0)    

壮志凌云2:独行侠[中文字幕].Top.Gun.Maverick.2022.IMAX.2160p.AMZN.WEB-DL.x265.10bit.HDR10Plus.DDP5.1.Atmos-SMURF 14.26GB

151625rcy3j5w9we5watjj.jpg

◎译 名 壮志凌云2:独行侠 / 捍卫战士:独行侠(台) / 壮志凌云独行侠 / 壮志凌云:麦德林 / 壮志凌云:独行者 / 壮志凌云:独行侠 / 壮志凌云2:马弗里克 / Top Gun 2 / Top Gun Maverick

◎片 名 Top Gun: Maverick

◎年 代 2022

◎产 地 美国 / 中国大陆

◎类 别 动作

◎语 言 英语

◎上映日期 2022-05-18(戛纳电影节) / 2022-05-27(美国)

◎IMDb链接 https://www.imdb.com/title/tt1745960/

◎豆瓣链接 https://movie.douban.com/subject/6893932/

◎片 长 131分钟

◎导 演 约瑟夫·科辛斯基 Joseph Kosinski (id:1313149)

◎编 剧 伊伦·克鲁格 Ehren Kruger (id:1027468)

埃里克·辛格尔 Eric Singer (id:1323406)

克里斯托弗·麦奎里 Christopher McQuarrie (id:1276314)

贾斯丁·马科斯 Justin Marks (id:1356399)

吉姆·卡什 Jim Cash (id:1014624)

小杰克·埃普斯 Jack Epps Jr. (id:1042140)

彼得·克莱格 Peter Craig (id:1041402)

◎演 员 汤姆·克鲁斯 Tom Cruise (id:1054435)

詹妮弗·康纳利 Jennifer Connelly (id:1016673)

迈尔斯·特勒 Miles Teller (id:1313408)

乔恩·哈姆 Jon Hamm (id:1031817)

方·基默 Val Kilmer (id:1013761)

莫妮卡.巴巴罗 Monica Barbaro (id:1344550)

珍·路易莎·凯利 Jean Louisa Kelly (id:1113403)

曼尼·贾希尼托 Manny Jacinto (id:1328121)

罗伯塔·斯巴达 Roberta Sparta (id:1272261)

艾德·哈里斯 Ed Harris (id:1048024)

格伦·鲍威尔 Glen Powell (id:1323123)

刘易斯·普尔曼 Lewis Pullman (id:1389925)

雷蒙德·李 Raymond Lee (id:1363747)

莉莲安娜·雷伊 Lyliana Wray (id:1424639)

杰·埃利斯 Jay Ellis (id:1180986)

杰克·皮克金 Jake Picking (id:1341288)

蕾切尔·马卡里兰 Rachael Markarian (id:1314215)

巴希尔·萨拉赫丁 Bashir Salahuddin (id:1193271)

彼得·马克·肯德尔 Peter Mark Kendall (id:1370140)

查尔斯·帕内尔 Charles Parnell (id:1348421)

切尔西哈里斯 Chelsea Harris (id:1222987)

丹尼·拉米雷斯 Danny Ramirez (id:1407519)

王仲欣 Kara Wong (id:1322057)

南希·德马尔斯 Nancy DeMars (id:1394842)

康妮·夏普 Conny Sharp (id:1392987)

塞尔吉奥·布里奥内斯 Sergio Briones (id:1392779)

佩内洛普·卡普迪雅 Penelope Kapudija (id:1407305)

马克·安东尼·考克斯 Mark Anthony Cox (id:1169525)

莫宾·汗 Mobin Khan (id:1209668)

托马辛·麦肯齐 Thomasin McKenzie (id:1394824)

格雷格·泰山·戴维斯 Greg Tarzan Davis (id:1473109)

汤姆·克鲁斯 Tom Cruise (id:1054435)

大卫·埃里森 David Ellison (id:1014408)

程武 Wu Cheng (id:1406349)

杰瑞·布鲁克海默 Jerry Bruckheimer (id:1049617)

哈罗德·方特梅耶 Harold Faltermeyer (id:1028099)

汉斯·季默 Hans Zimmer (id:1054386)

克劳迪奥·米兰达 Claudio Miranda (id:1292192)

埃迪·汉密尔顿 Eddie Hamilton (id:1412062)

丹尼斯·查米恩 Denise Chamian (id:1280408)

杰瑞米·欣德尔 Jeremy Hindle (id:1425439)

珍妮·帕斯凯尔 Jan Pascale (id:1294039)

玛琳·斯图尔特 Marlene Stewart (id:1051194)

◎简 介

作为海军顶尖飞行员服役30多年后,皮特·米切尔(代号:“独行侠”)(汤姆·克鲁斯 饰演)决定打破体制的限制,成为一名试飞员接受更大的挑战。当他接到命令,为一项高难度特殊任务训练一群“高空利剑”项目的毕业生时,他遇到了已故的好友兼雷达截获官,代号“笨鹅”的尼克·布拉德肖中尉之子布莱德利·布拉德肖中尉(代号:“公鸡”)。

面对不确定的未来和难以释怀的心魔,独行侠必须战胜内心深处的恐惧。因此,他参与了一项需要巨大牺牲才能完成的任务。

  1. Video

  2. ID : 1

  3. Format : HEVC

  4. Format/Info : High Efficiency Video Coding

  5. Format profile : Main [email protected]@Main

  6. HDR format : SMPTE ST 2094 App 4, Version 1, HDR10+ Profile B compatible

  7. Codec ID : V_MPEGH/ISO/HEVC

  8. Duration : 2 h 10 min

  9. Bit rate : 14.9 Mb/s

  10. Width : 3 840 pixels

  11. Height : 2 080 pixels

  12. Display aspect ratio : 1.85:1

  13. Frame rate mode : Constant

  14. Frame rate : 23.976 (24000/1001/53354) FPS

  15. Color space : YUV

  16. Chroma subsampling : 4:2:0

  17. Bit depth : 10 bits

  18. Bits/(Pixel*Frame) : 0.078

  19. Stream size : 13.6 GiB (95%)

  20. Default : Yes

  21. Forced : No

  22. Color range : Limited

  23. Color primaries : BT.2020

  24. Transfer characteristics : PQ

  25. Matrix coefficients : BT.2020 non-constant

  26. Mastering display color primaries : Display P3

  27. Mastering display luminance : min: 0.0001 cd/m2, max: 1000 cd/m2

  28. Maximum Content Light Level : 495 cd/m2

  29. Maximum Frame-Average Light Level : 492 cd/m2


  30. Audio

  31. ID : 2

  32. Format : E-AC-3 JOC

  33. Format/Info : Enhanced AC-3 with Joint Object Coding

  34. Commercial name : Dolby Digital Plus with Dolby Atmos

  35. Codec ID : A_EAC3

  36. Duration : 2 h 10 min

  37. Bit rate mode : Constant

  38. Bit rate : 768 kb/s

  39. Channel(s) : 6 channels

  40. Channel layout : L R C LFE Ls Rs

  41. Sampling rate : 48.0 kHz

  42. Frame rate : 31.250 FPS (1536 SPF)

  43. Compression mode : Lossy

  44. Stream size : 715 MiB (5%)

  45. Language : English

  46. Service kind : Complete Main

  47. Default : Yes

  48. Forced : No

  49. Complexity index : 16

  50. Number of dynamic objects : 15

  51. Bed channel count : 1 channel

  52. Bed channel configuration : LFE


  53. Text #1

  54. ID : 3

  55. Format : UTF-8

  56. Codec ID : S_TEXT/UTF8

  57. Codec ID/Info : UTF-8 Plain Text

  58. Duration : 2 h 1 min

  59. Bit rate : 56 b/s

  60. Frame rate : 0.216 FPS

  61. Count of elements : 1568

  62. Stream size : 50.3 KiB (0%)

  63. Language : English

  64. Default : No

  65. Forced : No


  66. Text #2

  67. ID : 4

  68. Format : UTF-8

  69. Codec ID : S_TEXT/UTF8

  70. Codec ID/Info : UTF-8 Plain Text

  71. Duration : 2 h 1 min

  72. Bit rate : 62 b/s

  73. Frame rate : 0.241 FPS

  74. Count of elements : 1762

  75. Stream size : 55.9 KiB (0%)

  76. Title : SDH

  77. Language : English

  78. Default : No

  79. Forced : No


  80. Text #3

  81. ID : 5

  82. Format : UTF-8

  83. Codec ID : S_TEXT/UTF8

  84. Codec ID/Info : UTF-8 Plain Text

  85. Duration : 2 h 9 min

  86. Bit rate : 75 b/s

  87. Frame rate : 0.191 FPS

  88. Count of elements : 1479

  89. Stream size : 71.4 KiB (0%)

  90. Language : Arabic

  91. Default : No

  92. Forced : No


  93. Text #4

  94. ID : 6

  95. Format : UTF-8

  96. Codec ID : S_TEXT/UTF8

  97. Codec ID/Info : UTF-8 Plain Text

  98. Duration : 2 h 9 min

  99. Bit rate : 70 b/s

  100. Frame rate : 0.183 FPS

  101. Count of elements : 1420

  102. Stream size : 66.7 KiB (0%)

  103. Language : Bulgarian

  104. Default : No

  105. Forced : No


  106. Text #5

  107. ID : 7

  108. Format : UTF-8

  109. Codec ID : S_TEXT/UTF8

  110. Codec ID/Info : UTF-8 Plain Text

  111. Duration : 2 h 9 min

  112. Bit rate : 46 b/s

  113. Frame rate : 0.184 FPS

  114. Count of elements : 1429

  115. Stream size : 43.7 KiB (0%)

  116. Language : Czech

  117. Default : No

  118. Forced : No


  119. Text #6

  120. ID : 8

  121. Format : UTF-8

  122. Codec ID : S_TEXT/UTF8

  123. Codec ID/Info : UTF-8 Plain Text

  124. Duration : 2 h 9 min

  125. Bit rate : 40 b/s

  126. Frame rate : 0.181 FPS

  127. Count of elements : 1404

  128. Stream size : 38.8 KiB (0%)

  129. Language : Danish

  130. Default : No

  131. Forced : No


  132. Text #7

  133. ID : 9

  134. Format : UTF-8

  135. Codec ID : S_TEXT/UTF8

  136. Codec ID/Info : UTF-8 Plain Text

  137. Duration : 2 h 9 min

  138. Bit rate : 71 b/s

  139. Frame rate : 0.189 FPS

  140. Count of elements : 1467

  141. Stream size : 67.7 KiB (0%)

  142. Language : Greek

  143. Default : No

  144. Forced : No


  145. Text #8

  146. ID : 10

  147. Format : UTF-8

  148. Codec ID : S_TEXT/UTF8

  149. Codec ID/Info : UTF-8 Plain Text

  150. Duration : 2 h 9 min

  151. Bit rate : 48 b/s

  152. Frame rate : 0.189 FPS

  153. Count of elements : 1464

  154. Stream size : 45.7 KiB (0%)

  155. Language : Spanish

  156. Default : No

  157. Forced : No


  158. Text #9

  159. ID : 11

  160. Format : UTF-8

  161. Codec ID : S_TEXT/UTF8

  162. Codec ID/Info : UTF-8 Plain Text

  163. Duration : 2 h 9 min

  164. Bit rate : 43 b/s

  165. Frame rate : 0.185 FPS

  166. Count of elements : 1434

  167. Stream size : 41.2 KiB (0%)

  168. Title : Latin American

  169. Language : Spanish

  170. Default : No

  171. Forced : No


  172. Text #10

  173. ID : 12

  174. Format : UTF-8

  175. Codec ID : S_TEXT/UTF8

  176. Codec ID/Info : UTF-8 Plain Text

  177. Duration : 2 h 9 min

  178. Bit rate : 45 b/s

  179. Frame rate : 0.191 FPS

  180. Count of elements : 1479

  181. Stream size : 42.8 KiB (0%)

  182. Language : Estonian

  183. Default : No

  184. Forced : No


  185. Text #11

  186. ID : 13

  187. Format : UTF-8

  188. Codec ID : S_TEXT/UTF8

  189. Codec ID/Info : UTF-8 Plain Text

  190. Duration : 2 h 9 min

  191. Bit rate : 45 b/s

  192. Frame rate : 0.189 FPS

  193. Count of elements : 1469

  194. Stream size : 43.2 KiB (0%)

  195. Language : Finnish

  196. Default : No

  197. Forced : No


  198. Text #12

  199. ID : 14

  200. Format : UTF-8

  201. Codec ID : S_TEXT/UTF8

  202. Codec ID/Info : UTF-8 Plain Text

  203. Duration : 2 h 9 min

  204. Bit rate : 38 b/s

  205. Frame rate : 0.172 FPS

  206. Count of elements : 1336

  207. Stream size : 36.8 KiB (0%)

  208. Language : French

  209. Default : No

  210. Forced : No


  211. Text #13

  212. ID : 15

  213. Format : UTF-8

  214. Codec ID : S_TEXT/UTF8

  215. Codec ID/Info : UTF-8 Plain Text

  216. Duration : 2 h 9 min

  217. Bit rate : 65 b/s

  218. Frame rate : 0.191 FPS

  219. Count of elements : 1486

  220. Stream size : 62.5 KiB (0%)

  221. Language : Hebrew

  222. Default : No

  223. Forced : No


  224. Text #14

  225. ID : 16

  226. Format : UTF-8

  227. Codec ID : S_TEXT/UTF8

  228. Codec ID/Info : UTF-8 Plain Text

  229. Duration : 2 h 9 min

  230. Bit rate : 129 b/s

  231. Frame rate : 0.192 FPS

  232. Count of elements : 1488

  233. Stream size : 123 KiB (0%)

  234. Language : Hindi

  235. Default : No

  236. Forced : No


  237. Text #15

  238. ID : 17

  239. Format : UTF-8

  240. Codec ID : S_TEXT/UTF8

  241. Codec ID/Info : UTF-8 Plain Text

  242. Duration : 2 h 9 min

  243. Bit rate : 48 b/s

  244. Frame rate : 0.185 FPS

  245. Count of elements : 1435

  246. Stream size : 46.3 KiB (0%)

  247. Language : Hungarian

  248. Default : No

  249. Forced : No


  250. Text #16

  251. ID : 18

  252. Format : UTF-8

  253. Codec ID : S_TEXT/UTF8

  254. Codec ID/Info : UTF-8 Plain Text

  255. Duration : 2 h 9 min

  256. Bit rate : 44 b/s

  257. Frame rate : 0.190 FPS

  258. Count of elements : 1472

  259. Stream size : 42.4 KiB (0%)

  260. Language : Indonesian

  261. Default : No

  262. Forced : No


  263. Text #17

  264. ID : 19

  265. Format : UTF-8

  266. Codec ID : S_TEXT/UTF8

  267. Codec ID/Info : UTF-8 Plain Text

  268. Duration : 2 h 9 min

  269. Bit rate : 39 b/s

  270. Frame rate : 0.188 FPS

  271. Count of elements : 1459

  272. Stream size : 37.1 KiB (0%)

  273. Language : Japanese

  274. Default : No

  275. Forced : No


  276. Text #18

  277. ID : 20

  278. Format : UTF-8

  279. Codec ID : S_TEXT/UTF8

  280. Codec ID/Info : UTF-8 Plain Text

  281. Duration : 2 h 9 min

  282. Bit rate : 41 b/s

  283. Frame rate : 0.189 FPS

  284. Count of elements : 1467

  285. Stream size : 39.7 KiB (0%)

  286. Language : Lithuanian

  287. Default : No

  288. Forced : No


  289. Text #19

  290. ID : 21

  291. Format : UTF-8

  292. Codec ID : S_TEXT/UTF8

  293. Codec ID/Info : UTF-8 Plain Text

  294. Duration : 2 h 9 min

  295. Bit rate : 48 b/s

  296. Frame rate : 0.191 FPS

  297. Count of elements : 1486

  298. Stream size : 46.1 KiB (0%)

  299. Language : Latvian

  300. Default : No

  301. Forced : No


  302. Text #20

  303. ID : 22

  304. Format : UTF-8

  305. Codec ID : S_TEXT/UTF8

  306. Codec ID/Info : UTF-8 Plain Text

  307. Duration : 2 h 9 min

  308. Bit rate : 48 b/s

  309. Frame rate : 0.191 FPS

  310. Count of elements : 1483

  311. Stream size : 46.1 KiB (0%)

  312. Language : Malay

  313. Default : No

  314. Forced : No


  315. Text #21

  316. ID : 23

  317. Format : UTF-8

  318. Codec ID : S_TEXT/UTF8

  319. Codec ID/Info : UTF-8 Plain Text

  320. Duration : 2 h 9 min

  321. Bit rate : 39 b/s

  322. Frame rate : 0.188 FPS

  323. Count of elements : 1457

  324. Stream size : 37.8 KiB (0%)

  325. Language : Norwegian

  326. Default : No

  327. Forced : No


  328. Text #22

  329. ID : 24

  330. Format : UTF-8

  331. Codec ID : S_TEXT/UTF8

  332. Codec ID/Info : UTF-8 Plain Text

  333. Duration : 2 h 9 min

  334. Bit rate : 39 b/s

  335. Frame rate : 0.187 FPS

  336. Count of elements : 1450

  337. Stream size : 37.3 KiB (0%)

  338. Language : Polish

  339. Default : No

  340. Forced : No


  341. Text #23

  342. ID : 25

  343. Format : UTF-8

  344. Codec ID : S_TEXT/UTF8

  345. Codec ID/Info : UTF-8 Plain Text

  346. Duration : 2 h 9 min

  347. Bit rate : 47 b/s

  348. Frame rate : 0.188 FPS

  349. Count of elements : 1462

  350. Stream size : 44.8 KiB (0%)

  351. Language : Portuguese

  352. Default : No

  353. Forced : No


  354. Text #24

  355. ID : 26

  356. Format : UTF-8

  357. Codec ID : S_TEXT/UTF8

  358. Codec ID/Info : UTF-8 Plain Text

  359. Duration : 2 h 9 min

  360. Bit rate : 45 b/s

  361. Frame rate : 0.190 FPS

  362. Count of elements : 1472

  363. Stream size : 43.1 KiB (0%)

  364. Title : Brazilian

  365. Language : Portuguese

  366. Default : No

  367. Forced : No


  368. Text #25

  369. ID : 27

  370. Format : UTF-8

  371. Codec ID : S_TEXT/UTF8

  372. Codec ID/Info : UTF-8 Plain Text

  373. Duration : 2 h 9 min

  374. Bit rate : 75 b/s

  375. Frame rate : 0.191 FPS

  376. Count of elements : 1479

  377. Stream size : 71.3 KiB (0%)

  378. Language : Russian

  379. Default : No

  380. Forced : No


  381. Text #26

  382. ID : 28

  383. Format : UTF-8

  384. Codec ID : S_TEXT/UTF8

  385. Codec ID/Info : UTF-8 Plain Text

  386. Duration : 2 h 9 min

  387. Bit rate : 44 b/s

  388. Frame rate : 0.190 FPS

  389. Count of elements : 1472

  390. Stream size : 42.4 KiB (0%)

  391. Language : Slovak

  392. Default : No

  393. Forced : No


  394. Text #27

  395. ID : 29

  396. Format : UTF-8

  397. Codec ID : S_TEXT/UTF8

  398. Codec ID/Info : UTF-8 Plain Text

  399. Duration : 2 h 9 min

  400. Bit rate : 39 b/s

  401. Frame rate : 0.147 FPS

  402. Count of elements : 1143

  403. Stream size : 37.7 KiB (0%)

  404. Language : Slovenian

  405. Default : No

  406. Forced : No


  407. Text #28

  408. ID : 30

  409. Format : UTF-8

  410. Codec ID : S_TEXT/UTF8

  411. Codec ID/Info : UTF-8 Plain Text

  412. Duration : 2 h 9 min

  413. Bit rate : 41 b/s

  414. Frame rate : 0.181 FPS

  415. Count of elements : 1408

  416. Stream size : 39.7 KiB (0%)

  417. Language : Swedish

  418. Default : No

  419. Forced : No


  420. Text #29

  421. ID : 31

  422. Format : UTF-8

  423. Codec ID : S_TEXT/UTF8

  424. Codec ID/Info : UTF-8 Plain Text

  425. Duration : 2 h 9 min

  426. Bit rate : 92 b/s

  427. Frame rate : 0.191 FPS

  428. Count of elements : 1486

  429. Stream size : 87.4 KiB (0%)

  430. Language : Thai

  431. Default : No

  432. Forced : No


  433. Text #30

  434. ID : 32

  435. Format : UTF-8

  436. Codec ID : S_TEXT/UTF8

  437. Codec ID/Info : UTF-8 Plain Text

  438. Duration : 2 h 9 min

  439. Bit rate : 48 b/s

  440. Frame rate : 0.189 FPS

  441. Count of elements : 1464

  442. Stream size : 45.8 KiB (0%)

  443. Language : Turkish

  444. Default : No

  445. Forced : No


  446. Text #31

  447. ID : 33

  448. Format : UTF-8

  449. Codec ID : S_TEXT/UTF8

  450. Codec ID/Info : UTF-8 Plain Text

  451. Duration : 2 h 9 min

  452. Bit rate : 75 b/s

  453. Frame rate : 0.190 FPS

  454. Count of elements : 1473

  455. Stream size : 71.9 KiB (0%)

  456. Language : Ukrainian

  457. Default : No

  458. Forced : No


  459. Text #32

  460. ID : 34

  461. Format : UTF-8

  462. Codec ID : S_TEXT/UTF8

  463. Codec ID/Info : UTF-8 Plain Text

  464. Duration : 2 h 9 min

  465. Bit rate : 60 b/s

  466. Frame rate : 0.190 FPS

  467. Count of elements : 1474

  468. Stream size : 57.2 KiB (0%)

  469. Language : Vietnamese

  470. Default : No

  471. Forced : No


  472. Text #33

  473. ID : 35

  474. Format : UTF-8

  475. Codec ID : S_TEXT/UTF8

  476. Codec ID/Info : UTF-8 Plain Text

  477. Duration : 2 h 9 min

  478. Bit rate : 42 b/s

  479. Frame rate : 0.190 FPS

  480. Count of elements : 1475

  481. Stream size : 39.8 KiB (0%)

  482. Title : Traditional

  483. Default : No

  484. Forced : No


  485. Text #34

  486. ID : 36

  487. Format : UTF-8

  488. Codec ID : S_TEXT/UTF8

  489. Codec ID/Info : UTF-8 Plain Text

  490. Duration : 2 h 9 min

  491. Bit rate : 41 b/s

  492. Frame rate : 0.191 FPS

  493. Count of elements : 1486

  494. Stream size : 39.2 KiB (0%)

  495. Title : zh-Hans

  496. Language : Chinese

  497. Default : No

  498. Forced : No


  499. Text #35

  500. ID : 37

  501. Format : UTF-8

  502. Codec ID : S_TEXT/UTF8

  503. Codec ID/Info : UTF-8 Plain Text

  504. Duration : 2 h 9 min

  505. Bit rate : 38 b/s

  506. Frame rate : 0.190 FPS

  507. Count of elements : 1475

  508. Stream size : 36.2 KiB (0%)

  509. Title : zh-Hant

  510. Language : Chinese

  511. Default : No

  512. Forced : No


  513. Menu

  514. 00:00:00.000 : en:Chapter 01

  515. 00:03:05.560 : en:Chapter 02

  516. 00:13:40.111 : en:Chapter 03

  517. 00:21:23.283 : en:Chapter 04

  518. 00:32:39.417 : en:Chapter 05

  519. 00:44:47.771 : en:Chapter 06

  520. 00:53:54.943 : en:Chapter 07

  521. 01:00:09.859 : en:Chapter 08

  522. 01:07:38.058 : en:Chapter 09

  523. 01:15:46.171 : en:Chapter 10

  524. 01:23:37.726 : en:Chapter 11

  525. 01:31:49.134 : en:Chapter 12

  526. 01:41:32.926 : en:Chapter 13

  527. 01:48:48.278 : en:Chapter 14

  528. 01:57:22.417 : en:Chapter 15

  529. 02:03:13.143 : en:Chapter 16


文件下载


除非特别注明,本文『壮志凌云2:独行侠[中文字幕].Top.Gun.Maverick.2022.IMAX.2160p.AMZN.WEB-DL.x265.10bit.HDR10Plus.DDP5.1.Atmos-SMURF』来源于互联网机器人自动抓取,非本站原创。 浮游电影网不对本文拥有版权,如有侵犯,请联系邮箱:fuyouu#yandex.com[#换成@]投诉。我们会在15个工作日内删除。 但烦请转载时请标明出处:“本文转载于『浮游电影网』,原文地址:https://www.fuyouu.com/22792.html

评论吧骚年!

发表你的见解   

昵称*

E-mail*(建议输入,以便收到博主回复的提示邮件)

验证码*

您可以使用eMule或eMule Mod(Windows)、aMule(Win、Linux、Mac)等软件下载eD2k链接。。
eMule收藏集(.emulecollection)文件是您选中的所有链接的列表文件。eMule可以直接下载它们。
按住SHIFT键选择可以选中多个选择框。
可用文件名和大小选择器来选择文件。
文件名选择器帮您根据文件名称或后缀来选择文件。不分大小写。
符号使用:
和:空格( )、+
不包含:-
或:|
转义:一对英文引号("");
匹配开头:^
匹配结尾:$
例如:
选中所有名称中包含有“eMule”或“0.49c”字眼,但不包含有“exe”字眼的:emule|0.49c -exe
选中所有名称的开头是“eMule”,结尾是“0.49c”的:^emule 0.49c$
选中所有名称中带有“eMule 0.49c”的(必须是“eMule 0.49c”,中间没有别的字符,不能是“eMule fake 0.49c”),需要转义:"emule 0.49c"
大小选择器帮您根据文件大小选择文件。