当前位置: 首页 >> 欧美电影 >> 魔力女战士[中文字幕].Aeon.Flux.2005.2160p.WEB-DL.DD5.1.DV.MP4.x265-DVSUX 15.91GB >> 正文

魔力女战士[中文字幕].Aeon.Flux.2005.2160p.WEB-DL.DD5.1.DV.MP4.x265-DVSUX 15.91GB

2022年08月23日 20:50:15     电影发布:来源于网络     电影分类:欧美电影     评论(0)    

魔力女战士[中文字幕].Aeon.Flux.2005.2160p.WEB DL.DD5.1.DV.MP4.x265 DVSUX 15.91GB  欧美电影  第1张

魔力女战士[中文字幕].Aeon.Flux.2005.2160p.WEB DL.DD5.1.DV.MP4.x265 DVSUX 15.91GB  欧美电影  第2张

◎标 题 魔力女战士

◎译 名 万古流传 / 倩影刺客 / Aeon Flux

◎片 名 Æon Flux

◎年 代 2005

◎产 地 美国

◎类 别 动作 / 科幻 / 冒险

◎语 言 英语

◎上映日期 2005-12-02

◎IMDb评分 5.4/10 (127647人评价)

◎IMDb链接 https://www.imdb.com/title/tt0402022/

◎豆瓣评分 5.7/10 (15063人评价)

◎豆瓣链接 https://movie.douban.com/subject/1309065/

◎片 长 93 分钟

◎导 演 卡瑞恩·库萨马 Karyn Kusama

◎编 剧 费尔·海伊 Phil Hay

马特·曼弗莱迪 Matt Manfredi

钟彼得 Peter Chung

◎演 员 查理兹·塞隆 Charlize Theron

马尔顿·索克斯 Marton Csokas

约翰尼·李·米勒 Jonny Lee Miller

苏菲·奥康内多 Sophie Okonedo

弗兰西斯·麦克多蒙德 Frances McDormand

皮特·波斯尔思韦特 Pete Postlethwaite

阿梅丽娅·华纳 Amelia Warner

卡罗琳·奇克泽 Caroline Chikezie

尼科莱·金斯基 Nikolai Kinski

佩特逊·约瑟夫 Paterson Joseph

央宗•布劳恩 Yangzom Brauen

Thomas Huber Thomas Huber

Weijian Liu Weijian Liu

Maverick Quek Maverick Quek

Ralph Herforth Ralph Herforth

Megan Gay Megan Gay

查理·比尔 Charlie Beall

Ronald Marx Ronald Marx

阿克瑟·施奈伯 Axel Schreiber

肖恩·劳顿 Shaun Lawton

贝蒂 奥金诺 Betty Okino

安纳托·陶布曼 Anatole Taubman

拉文尼娅·威尔森 Lavinia Wilson

费尔·海伊 Phil Hay

Bojan Heyn Bojan Heyn

Joost Siedhoff Joost Siedhoff

娜格斯·拉什迪 Narges Rashidi

米尔顿·威尔士 Milton Welsh

Natacza Boon Natacza Boon

迈克尔·品克 Michael Pink

Jannik Büddig Jannik Büddig

米尔科·朗 Mirko Lang

Mickey Nedimovic Mickey Nedimovic

维尔·鲁特根 Wil Röttgen

沃尔夫冈·施特格曼 Wolfgang Stegemann

斯图尔特·汤森德 Stuart Townsend

蒂米·特林克斯 Timmi Trinks

Van Toffler Van Toffler

汤姆·罗森伯格 Tom Rosenberg

David Gale David Gale

Martha Griffin Martha Griffin

加里·卢切西 Gary Lucchesi

彼得·霍尼斯 Peter Honess

劳拉·罗森塔尔 Laura Rosenthal

安德鲁·麦克阿尔平 Andrew McAlpine

Marco Bittner Rosser Marco Bittner Rosser

加里·弗里曼 Gary Freeman

John Frankish John Frankish

Beatrix Aruna Pasztor Beatrix Aruna Pasztor

丹妮丝·卡姆 Denise Kum

Mitchell J. Coughlin Mitchell J. Coughlin

Wolfgang Böge Wolfgang Böge

恩佐·昂吉莱利 Enzo Angileri

安娜·福斯特 Anna Foerster

Charles Croughwell Charles Croughwell

Lisa C. Satriano Lisa C. Satriano

Brenton Cottman Brenton Cottman

Matthias Wittmann Matthias Wittmann

米歇尔·莫恩 Michele Moen

布鲁斯·尼科尔森 Bruce Nicholson

David Prescott David Prescott

Dav Rauch Dav Rauch

乔纳森·罗斯巴特 Jonathan Rothbart

Ellen Somers Ellen Somers

David Sosalla David Sosalla

Bill Taylor Bill Taylor

Chris Y. Yang Chris Y. Yang

Sharon Fitzgerald Sharon Fitzgerald

Gareth Dinneen Gareth Dinneen

马修·格拉茨纳 Matthew Gratzner

Shadi Almassizadeh Shadi Almassizadeh

罗杰·库帕里安 Roger Kupelian

Sonja Burchard Sonja Burchard

Marc Sadeghi Marc Sadeghi

Sarahjane Javelo Sarahjane Javelo

扎克·贾德森 Zack Judson

斯科特·埃德斯坦 Scott Edelstein

卢克·奥伯恩 Luke O'Byrne

◎简 介

21世纪初,一场瘟疫夺去了99%的人类生命,幸存者们依靠科学家古德查德的发明,建造孤城布瑞拉格维系文明。时间过去四百年后,部分市民不满古德查德政权独裁统治与持续发生的失踪案,组建武装力量魔力党(Monicans)对抗。

女战士伊恩(查理兹·塞隆 Charlize Theron 饰)是魔力党中实力顶尖的人物,在完成破坏古德查德监控系统的任务中,伊恩目睹了被对方杀害的亲妹遗体,伊恩在怒火添胸时得到了刺杀古德查德首脑特雷弗的指令,但当她与特雷弗面对面时,对方呼唤“凯瑟琳”这个名字让她陷入混乱的记忆无法行动。伊恩脱身后着手调查这座城市的真相,发现一直以来的失踪案与克隆计划息息相关,而布瑞拉格运行的基础便是复制人类。伊恩的发现很快引起连锁反应,将各方势力卷入其中……

  1. Video

  2. ID : 1

  3. Format : HEVC

  4. Format/Info : High Efficiency Video Coding

  5. Format profile : Main [email protected]@High

  6. HDR format : Dolby Vision, Version 1.0, dvhe.05.06, BL+RPU

  7. Codec ID : dvhe

  8. Codec ID/Info : High Efficiency Video Coding with Dolby Vision

  9. Duration : 1 h 32 min

  10. Bit rate : 24.1 Mb/s

  11. Width : 3 840 pixels

  12. Height : 1 640 pixels

  13. Original height : 1 634 pixels

  14. Display aspect ratio : 2.35:1

  15. Original display aspect ratio : 2.35:1

  16. Frame rate mode : Constant

  17. Frame rate : 23.976 (24000/1001/53354) FPS

  18. Color space : YUV

  19. Chroma subsampling : 4:2:0

  20. Bit depth : 10 bits

  21. Bits/(Pixel*Frame) : 0.160

  22. Stream size : 15.7 GiB (98%)

  23. Default : Yes

  24. Alternate group : 1

  25. Codec configuration box : hvcC+dvcC


  26. Audio

  27. ID : 2

  28. Format : AC-3

  29. Format/Info : Audio Coding 3

  30. Commercial name : Dolby Digital

  31. Codec ID : ac-3

  32. Duration : 1 h 32 min

  33. Bit rate mode : Constant

  34. Bit rate : 384 kb/s

  35. Maximum bit rate : 406 kb/s

  36. Channel(s) : 6 channels

  37. Channel layout : L R C LFE Ls Rs

  38. Sampling rate : 48.0 kHz

  39. Frame rate : 31.250 FPS (1536 SPF)

  40. Compression mode : Lossy

  41. Stream size : 255 MiB (2%)

  42. Language : English

  43. Service kind : Complete Main

  44. Default : Yes

  45. Alternate group : 1


  46. Text #1

  47. ID : 4

  48. Format : Timed Text

  49. Codec ID : tx3g

  50. Duration : 1 h 25 min

  51. Bit rate mode : Variable

  52. Bit rate : 55 b/s

  53. Frame rate : 0.281 FPS

  54. Stream size : 34.8 KiB (0%)

  55. Language : Arabic

  56. Forced : No


  57. Text #2

  58. ID : 5

  59. Format : Timed Text

  60. Codec ID : tx3g

  61. Duration : 1 h 25 min

  62. Bit rate mode : Variable

  63. Bit rate : 69 b/s

  64. Frame rate : 0.283 FPS

  65. Stream size : 43.2 KiB (0%)

  66. Language : Bulgarian

  67. Forced : No


  68. Text #3

  69. ID : 6

  70. Format : Timed Text

  71. Codec ID : tx3g

  72. Duration : 1 h 26 min

  73. Bit rate mode : Variable

  74. Bit rate : 34 b/s

  75. Frame rate : 0.280 FPS

  76. Stream size : 21.8 KiB (0%)

  77. Title : Simplified

  78. Language : Chinese

  79. Forced : No


  80. Text #4

  81. ID : 7

  82. Format : Timed Text

  83. Codec ID : tx3g

  84. Duration : 1 h 25 min

  85. Bit rate mode : Variable

  86. Bit rate : 32 b/s

  87. Frame rate : 0.276 FPS

  88. Stream size : 19.9 KiB (0%)

  89. Title : Traditional

  90. Language : Chinese

  91. Forced : No


  92. Text #5

  93. ID : 8

  94. Format : Timed Text

  95. Codec ID : tx3g

  96. Duration : 1 h 25 min

  97. Bit rate mode : Variable

  98. Bit rate : 45 b/s

  99. Frame rate : 0.281 FPS

  100. Stream size : 28.4 KiB (0%)

  101. Language : Danish

  102. Forced : No


  103. Text #6

  104. ID : 9

  105. Format : Timed Text

  106. Codec ID : tx3g

  107. Duration : 1 h 25 min

  108. Bit rate mode : Variable

  109. Bit rate : 46 b/s

  110. Frame rate : 0.276 FPS

  111. Stream size : 29.0 KiB (0%)

  112. Language : English

  113. Forced : No


  114. Text #7

  115. ID : 10

  116. Format : Timed Text

  117. Codec ID : tx3g

  118. Duration : 1 h 25 min

  119. Bit rate mode : Variable

  120. Bit rate : 54 b/s

  121. Frame rate : 0.314 FPS

  122. Stream size : 33.8 KiB (0%)

  123. Title : SDH

  124. Language : English

  125. Forced : No


  126. Text #8

  127. ID : 11

  128. Format : Timed Text

  129. Codec ID : tx3g

  130. Duration : 1 h 25 min

  131. Bit rate mode : Variable

  132. Bit rate : 46 b/s

  133. Frame rate : 0.282 FPS

  134. Stream size : 28.7 KiB (0%)

  135. Title : Latin American

  136. Language : Spanish

  137. Forced : No


  138. Text #9

  139. ID : 12

  140. Format : Timed Text

  141. Codec ID : tx3g

  142. Duration : 1 h 25 min

  143. Bit rate mode : Variable

  144. Bit rate : 46 b/s

  145. Frame rate : 0.283 FPS

  146. Stream size : 28.8 KiB (0%)

  147. Language : Finnish

  148. Forced : No


  149. Text #10

  150. ID : 13

  151. Format : Timed Text

  152. Codec ID : tx3g

  153. Duration : 1 h 25 min

  154. Bit rate mode : Variable

  155. Bit rate : 60 b/s

  156. Frame rate : 0.283 FPS

  157. Stream size : 37.4 KiB (0%)

  158. Language : Hebrew

  159. Forced : No


  160. Text #11

  161. ID : 14

  162. Format : Timed Text

  163. Codec ID : tx3g

  164. Duration : 1 h 32 min

  165. Bit rate mode : Variable

  166. Bit rate : 95 b/s

  167. Frame rate : 0.261 FPS

  168. Stream size : 64.8 KiB (0%)

  169. Language : Hindi

  170. Forced : No


  171. Text #12

  172. ID : 15

  173. Format : Timed Text

  174. Codec ID : tx3g

  175. Duration : 1 h 25 min

  176. Bit rate mode : Variable

  177. Bit rate : 38 b/s

  178. Frame rate : 0.261 FPS

  179. Stream size : 23.9 KiB (0%)

  180. Language : Dutch

  181. Forced : No


  182. Text #13

  183. ID : 16

  184. Format : Timed Text

  185. Codec ID : tx3g

  186. Duration : 1 h 25 min

  187. Bit rate mode : Variable

  188. Bit rate : 41 b/s

  189. Frame rate : 0.278 FPS

  190. Stream size : 26.0 KiB (0%)

  191. Language : Norwegian

  192. Forced : No


  193. Text #14

  194. ID : 17

  195. Format : Timed Text

  196. Codec ID : tx3g

  197. Duration : 1 h 25 min

  198. Bit rate mode : Variable

  199. Bit rate : 40 b/s

  200. Frame rate : 0.276 FPS

  201. Stream size : 25.1 KiB (0%)

  202. Language : Polish

  203. Forced : No


  204. Text #15

  205. ID : 18

  206. Format : Timed Text

  207. Codec ID : tx3g

  208. Duration : 1 h 25 min

  209. Bit rate mode : Variable

  210. Bit rate : 45 b/s

  211. Frame rate : 0.281 FPS

  212. Stream size : 28.3 KiB (0%)

  213. Title : Brazilian

  214. Language : Portuguese

  215. Forced : No


  216. Text #16

  217. ID : 19

  218. Format : Timed Text

  219. Codec ID : tx3g

  220. Duration : 1 h 25 min

  221. Bit rate mode : Variable

  222. Bit rate : 47 b/s

  223. Frame rate : 0.283 FPS

  224. Stream size : 29.5 KiB (0%)

  225. Language : Portuguese

  226. Forced : No


  227. Text #17

  228. ID : 20

  229. Format : Timed Text

  230. Codec ID : tx3g

  231. Duration : 1 h 25 min

  232. Bit rate mode : Variable

  233. Bit rate : 45 b/s

  234. Frame rate : 0.281 FPS

  235. Stream size : 28.4 KiB (0%)

  236. Language : Swedish

  237. Forced : No


  238. Text #18

  239. ID : 21

  240. Format : Timed Text

  241. Codec ID : tx3g

  242. Duration : 1 h 25 min

  243. Bit rate mode : Variable

  244. Bit rate : 90 b/s

  245. Frame rate : 0.282 FPS

  246. Stream size : 56.6 KiB (0%)

  247. Language : Thai

  248. Forced : No


  249. Text #19

  250. ID : 22

  251. Format : Timed Text

  252. Codec ID : tx3g

  253. Duration : 1 h 25 min

  254. Bit rate mode : Variable

  255. Bit rate : 46 b/s

  256. Frame rate : 0.283 FPS

  257. Stream size : 28.7 KiB (0%)

  258. Language : Turkish

  259. Forced : No


  260. Text #20

  261. ID : 23

  262. Format : Timed Text

  263. Codec ID : tx3g

  264. Duration : 1 h 25 min

  265. Bit rate mode : Variable

  266. Bit rate : 35 b/s

  267. Frame rate : 0.283 FPS

  268. Stream size : 22.0 KiB (0%)

  269. Title : Cantonese

  270. Language : Chinese

  271. Forced : No


  272. Menu

  273. 00:00:00.000 : Chapter 1

  274. 00:05:27.035 : Chapter 2

  275. 00:11:34.110 : Chapter 3

  276. 00:14:50.140 : Chapter 4

  277. 00:22:50.286 : Chapter 5

  278. 00:31:02.237 : Chapter 6

  279. 00:36:35.487 : Chapter 7

  280. 00:44:49.356 : Chapter 8

  281. 00:50:31.364 : Chapter 9

  282. 00:59:31.154 : Chapter 10

  283. 01:06:49.926 : Chapter 11

  284. 01:12:53.998 : Chapter 12

  285. 01:20:21.029 : Chapter 13

  286. 01:24:15.597 : Chapter 14

复制代码

魔力女战士[中文字幕].Aeon.Flux.2005.2160p.WEB DL.DD5.1.DV.MP4.x265 DVSUX 15.91GB  欧美电影  第3张 魔力女战士[中文字幕].Aeon.Flux.2005.2160p.WEB DL.DD5.1.DV.MP4.x265 DVSUX 15.91GB  欧美电影  第4张 魔力女战士[中文字幕].Aeon.Flux.2005.2160p.WEB DL.DD5.1.DV.MP4.x265 DVSUX 15.91GB  欧美电影  第5张




文件下载




除非特别注明,本文『魔力女战士[中文字幕].Aeon.Flux.2005.2160p.WEB-DL.DD5.1.DV.MP4.x265-DVSUX 15.91GB』来源于互联网机器人自动抓取,非本站原创。 浮游电影网不对本文拥有版权,如有侵犯,请联系邮箱:fuyouu#yandex.com[#换成@]投诉。我们会在15个工作日内删除。 但烦请转载时请标明出处:“本文转载于『浮游电影网』,原文地址:https://www.fuyouu.com/22790.html

评论吧骚年!

发表你的见解   

昵称*

E-mail*(建议输入,以便收到博主回复的提示邮件)

验证码*

您可以使用eMule或eMule Mod(Windows)、aMule(Win、Linux、Mac)等软件下载eD2k链接。。
eMule收藏集(.emulecollection)文件是您选中的所有链接的列表文件。eMule可以直接下载它们。
按住SHIFT键选择可以选中多个选择框。
可用文件名和大小选择器来选择文件。
文件名选择器帮您根据文件名称或后缀来选择文件。不分大小写。
符号使用:
和:空格( )、+
不包含:-
或:|
转义:一对英文引号("");
匹配开头:^
匹配结尾:$
例如:
选中所有名称中包含有“eMule”或“0.49c”字眼,但不包含有“exe”字眼的:emule|0.49c -exe
选中所有名称的开头是“eMule”,结尾是“0.49c”的:^emule 0.49c$
选中所有名称中带有“eMule 0.49c”的(必须是“eMule 0.49c”,中间没有别的字符,不能是“eMule fake 0.49c”),需要转义:"emule 0.49c"
大小选择器帮您根据文件大小选择文件。