当前位置: 首页 >> 港台电影 >> 洗黑钱[国语音轨].Tiger.Cage.II.1990.1080p.BluRay.x264-ORBS 10.30GB >> 正文

洗黑钱[国语音轨].Tiger.Cage.II.1990.1080p.BluRay.x264-ORBS 10.30GB

2022年08月22日 21:04:28     电影发布:来源于网络     电影分类:港台电影     评论(0)    

191057h4fttt4taoo4odx4.jpg

◎译 名 洗黑钱 / 特警屠龙2 / Tiger Cage 2

◎片 名 洗黑錢

◎年 代 1990

◎产 地 中国香港

◎类 别 动作 / 犯罪

◎语 言 粤语

◎上映日期 1990-08-11(中国香港)

◎IMDb链接 https://www.imdb.com/title/tt0100967/

◎豆瓣评分 6.8/10 (4518人评价)

◎豆瓣链接 https://movie.douban.com/subject/1301240/

◎片 长 95 分钟

◎导 演 袁和平 Woo-ping Yuen (id:1275026)

◎编 剧 叶广俭 Kwong Kim Yip (id:1301507)

方志豪 Chi-Ho Fong (id:1418703)

袁若光 Patrick Yuen Yeuk-Kwong (id:1417558)

◎演 员 甄子丹 Donnie Yen (id:1025194)

关之琳 Rosamund Kwan (id:1028064)

吴大维 David Wu (id:1028801)

郑裕玲 Carol 'Do Do' Cheng (id:1070060)

仇云波 Robin Shou (id:1009315)

杨丽菁 Cynthia Khan (id:1037356)

李婉华 Anita Lee (id:1274864)

钟荣 Chung Wing (id:1432989)

查传谊 Chuen-Yee Cha (id:1280377)

韩冬青 (id:1470910)

罗烈 Lieh Lo (id:1012614)

约翰 萨尔维蒂 John Salvitti (id:1342213)

张旭燊 Yuk-San Cheung (id:1474528)

冼杞然 Stephen Shin (id:1297480)

袁卓凡 Richard Yuen (id:1287087)

李屏宾 Mark Lee Ping Bing (id:1274482)

黄海光 Chris Wong (id:1301192)

关莉娜 Lee-na Kwan (id:1289154)

方志豪 Chi-Ho Fong (id:1418703)

袁若光 Patrick Yuen Yeuk-Kwong (id:1417558)

梁家仁 Ka-Yan Leung (id:1008125)

甄子丹 Donnie Yen (id:1025194)

曾景祥 Kinson Tsang (id:1299575)

李炳光 Ping Kwong Lee (id:1410638)

迈克尔·伍兹 Michael Woods (id:1342020)

◎简 介

余文慧(关之琳 饰)和未婚夫(仇云波 饰)都是知名律师,过着上流人的生活。某日,游龙(甄子丹 饰)来律师事务所办理离婚时目睹了一宗劫案,一大笔美金不翼而飞,另一个目击者就是他太太的律师余文慧。由于误会,大伟和余文慧被警察当作了劫匪通缉,另一边真正的劫匪也没拿到这笔巨款并 怀疑是大伟和文慧二人私吞,也派人追杀他们。二人腹背受敌、百口莫辩,在逃难的过程中,文慧渐渐看清了未婚夫的真面目,同时对大伟另眼相看,真相终于揭开……谁是真正的幕后黑手?大伟和文慧能洗清自己并走到一起吗?

《洗黑钱》由袁和平、甄子丹、袁祥仁、郭振锋共同完成动作设计,其动作场面被誉为香港动作影史的典范之作!

  1. Video

  2. ID : 1

  3. Format : AVC

  4. Format/Info : Advanced Video Codec

  5. Format profile : [email protected]

  6. Format settings : CABAC / 4 Ref Frames

  7. Format settings, CABAC : Yes

  8. Format settings, Reference frames : 4 frames

  9. Codec ID : V_MPEG4/ISO/AVC

  10. Duration : 1 h 36 min

  11. Bit rate : 14.3 Mb/s

  12. Width : 1 920 pixels

  13. Height : 1 038 pixels

  14. Display aspect ratio : 1.85:1

  15. Frame rate mode : Constant

  16. Frame rate : 23.976 (24000/1001/53354) FPS

  17. Color space : YUV

  18. Chroma subsampling : 4:2:0

  19. Bit depth : 8 bits

  20. Scan type : Progressive

  21. Bits/(Pixel*Frame) : 0.299

  22. Stream size : 9.61 GiB (93%)

  23. Writing library : x264 core 164 r3095 baee400

  24. Encoding settings : cabac=1 / ref=4 / deblock=1:-3:-3 / analyse=0x3:0x133 / me=umh / subme=10 / psy=1 / psy_rd=1.20:0.00 / mixed_ref=1 / me_range=24 / chroma_me=1 / trellis=2 / 8x8dct=1 / cqm=0 / deadzone=21,11 / fast_pskip=0 / chroma_qp_offset=-2 / threads=24 / lookahead_threads=4 / sliced_threads=0 / nr=0 / decimate=0 / interlaced=0 / NTMzNTQ= / bluray_compat=0 / constrained_intra=0 / bframes=8 / b_pyramid=2 / b_adapt=2 / b_bias=0 / direct=3 / weightb=1 / open_gop=0 / weightp=2 / keyint=250 / keyint_min=23 / NTMzNTQ=uuDQuD2mJt9fsCf / scenecut=40 / intra_refresh=0 / rc_lookahead=60 / rc=crf / mbtree=1 / crf=23.0 / qcomp=0.60 / qpmin=0 / qpmax=69 / qpstep=4 / NTMzNTQ=LmsMAP37EqsCpk / ip_ratio=1.40 / aq=3:0.90

  25. Default : Yes

  26. Forced : No

  27. Color range : Limited

  28. Matrix coefficients : BT.709


  29. Audio #1

  30. ID : 2

  31. Format : FLAC

  32. Format/Info : Free Lossless Audio Codec

  33. Codec ID : A_FLAC

  34. Duration : 1 h 36 min

  35. Bit rate mode : Variable

  36. Bit rate : 528 kb/s

  37. Channel(s) : 2 channels

  38. Channel layout : L R

  39. Sampling rate : 48.0 kHz

  40. Frame rate : 11.719 FPS (4096 SPF)

  41. Bit depth : 16 bits

  42. Compression mode : Lossless

  43. Stream size : 364 MiB (3%)

  44. Writing library : libFLAC 1.3.3 (UTC 2019-08-04)

  45. Language : Chinese

  46. Default : Yes

  47. Forced : No


  48. Audio #2

  49. ID : 3

  50. Format : FLAC

  51. Format/Info : Free Lossless Audio Codec

  52. Codec ID : A_FLAC

  53. Duration : 1 h 36 min

  54. Bit rate mode : Variable

  55. Bit rate : 298 kb/s

  56. Channel(s) : 2 channels

  57. Channel layout : L R

  58. Sampling rate : 48.0 kHz

  59. Frame rate : 11.719 FPS (4096 SPF)

  60. Bit depth : 16 bits

  61. Compression mode : Lossless

  62. Stream size : 206 MiB (2%)

  63. Writing library : libFLAC 1.3.3 (UTC 2019-08-04)

  64. Language : English

  65. Default : No

  66. Forced : No


  67. Audio #3

  68. ID : 4

  69. Format : AAC LC

  70. Format/Info : Advanced Audio Codec Low Complexity

  71. Codec ID : A_AAC-2

  72. Duration : 1 h 36 min

  73. Bit rate : 80.2 kb/s

  74. Channel(s) : 2 channels

  75. Channel layout : L R

  76. Sampling rate : 48.0 kHz

  77. Frame rate : 46.875 FPS (1024 SPF)

  78. Compression mode : Lossy

  79. Delay relative to video : 20 ms

  80. Stream size : 55.2 MiB (1%)

  81. Title : Commentary

  82. Language : English

  83. Default : No

  84. Forced : No


  85. Audio #4

  86. ID : 5

  87. Format : AAC LC

  88. Format/Info : Advanced Audio Codec Low Complexity

  89. Codec ID : A_AAC-2

  90. Duration : 1 h 36 min

  91. Bit rate : 96.0 kb/s

  92. Channel(s) : 2 channels

  93. Channel layout : L R

  94. Sampling rate : 48.0 kHz

  95. Frame rate : 46.875 FPS (1024 SPF)

  96. Compression mode : Lossy

  97. Delay relative to video : 20 ms

  98. Stream size : 65.9 MiB (1%)

  99. Title : Commentary

  100. Language : English

  101. Default : No

  102. Forced : No


  103. Text #1

  104. ID : 6

  105. Format : UTF-8

  106. Codec ID : S_TEXT/UTF8

  107. Codec ID/Info : UTF-8 Plain Text

  108. Duration : 1 h 33 min

  109. Bit rate : 42 b/s

  110. Count of elements : 892

  111. Stream size : 29.0 KiB (0%)

  112. Title : English (Forced)

  113. Language : English

  114. Default : Yes

  115. Forced : Yes


  116. Text #2

  117. ID : 7

  118. Format : PGS

  119. Muxing mode : zlib

  120. Codec ID : S_HDMV/PGS

  121. Codec ID/Info : Picture based subtitle format used on BDs/HD-DVDs

  122. Duration : 1 h 33 min

  123. Bit rate : 27.7 kb/s

  124. Count of elements : 1784

  125. Stream size : 18.5 MiB (0%)

  126. Language : English

  127. Default : No

  128. Forced : No


  129. Menu

  130. 00:00:00.000 : Chapter 01

  131. 00:11:05.957 : Chapter 02

  132. 00:20:35.985 : Chapter 03

  133. 00:29:09.831 : Chapter 04

  134. 00:37:19.571 : Chapter 05

  135. 00:47:29.680 : Chapter 06

  136. 00:57:23.023 : Chapter 07

  137. 01:08:36.779 : Chapter 08

  138. 01:16:07.354 : Chapter 09

  139. 01:26:41.905 : Chapter 10

  140. 01:36:18.356 : Chapter 11



文件下载


除非特别注明,本文『洗黑钱[国语音轨].Tiger.Cage.II.1990.1080p.BluRay.x264-ORBS 10.30GB』来源于互联网机器人自动抓取,非本站原创。 浮游电影网不对本文拥有版权,如有侵犯,请联系邮箱:fuyouu#yandex.com[#换成@]投诉。我们会在15个工作日内删除。 但烦请转载时请标明出处:“本文转载于『浮游电影网』,原文地址:https://www.fuyouu.com/22789.html

评论吧骚年!

发表你的见解   

昵称*

E-mail*(建议输入,以便收到博主回复的提示邮件)

验证码*

您可以使用eMule或eMule Mod(Windows)、aMule(Win、Linux、Mac)等软件下载eD2k链接。。
eMule收藏集(.emulecollection)文件是您选中的所有链接的列表文件。eMule可以直接下载它们。
按住SHIFT键选择可以选中多个选择框。
可用文件名和大小选择器来选择文件。
文件名选择器帮您根据文件名称或后缀来选择文件。不分大小写。
符号使用:
和:空格( )、+
不包含:-
或:|
转义:一对英文引号("");
匹配开头:^
匹配结尾:$
例如:
选中所有名称中包含有“eMule”或“0.49c”字眼,但不包含有“exe”字眼的:emule|0.49c -exe
选中所有名称的开头是“eMule”,结尾是“0.49c”的:^emule 0.49c$
选中所有名称中带有“eMule 0.49c”的(必须是“eMule 0.49c”,中间没有别的字符,不能是“eMule fake 0.49c”),需要转义:"emule 0.49c"
大小选择器帮您根据文件大小选择文件。