当前位置: 首页 >> 欧美电影 >> 天空的尽头是另一片天空[简繁英字幕].The.Sky.Is.Everywhere.2022.2160p.ATVP.WEB-DL.H265.10bit.HDR.DDP5.1.Atmos-TAGWEB 2 >> 正文

天空的尽头是另一片天空[简繁英字幕].The.Sky.Is.Everywhere.2022.2160p.ATVP.WEB-DL.H265.10bit.HDR.DDP5.1.Atmos-TAGWEB 2

2022年08月22日 21:02:19     电影发布:来源于网络     电影分类:欧美电影     评论(0)    

天空的尽头是另一片天空[简繁英字幕].The.Sky.Is.Everywhere.2022.2160p.ATVP.WEB-DL.H265.10bit.HDR.DDP5.1.Atmos-TAGWEB 21.32GB

◎标 题 天空的尽头是另一片天空

◎译 名 Über mir der Himmel / El cielo está en cualquier lugar

◎片 名 The Sky Is Everywhere

◎年 代 2022

◎产 地 美国

◎类 别 剧情

◎语 言 英语

◎上映日期 2022-02-11(美国网络)

◎IMDb评分 5.6/10 (984人评价)

◎IMDb链接 https://www.imdb.com/title/tt2201261/

◎豆瓣评分 5.3/10 (241人评价)

◎豆瓣链接 https://movie.douban.com/subject/34951055/

◎片 长 103分钟

◎导 演 约瑟芬·戴克 Josephine Decker

◎演 员 格蕾丝·考夫曼 Grace Kaufman

雅克·考利蒙 Jacques Colimon

杰森·席格尔 Jason Segel

切莉·琼斯 Cherry Jones

皮可·亚历山大 Pico Alexander

哈瓦娜·罗丝·刘 Havana Rose Liu

茱莉亚·施莱弗 Julia Schlaepfer

柳智英 Ji-young Yoo

◎简 介

讲述一个女孩在姐姐去世后重新面对生活与爱情的故事

  1. ##### MediaInfo ######

  2. General

  3. Unique ID : 27573888953755429041589141353961537958 (0x14BE89B002249445AD92187A0182C1A6)

  4. Complete name : The.Sky.Is.Everywhere.2022.2160p.ATVP.WEB-DL.H265.10bit.HDR.DDP5.1.Atmos-TAGWEB.mkv

  5. Format : Matroska

  6. Format version : Version 4

  7. File size : 21.3 GiB

  8. Duration : 1 h 43 min

  9. Overall bit rate : 29.5 Mb/s

  10. Encoded date : UTC 2022-06-01 21:09:50

  11. Writing application : mkvmerge v67.0.0 ('Under Stars') 64-bit

  12. Writing library : libebml v1.4.2 + libmatroska v1.6.4

  13. Video

  14. ID : 1

  15. Format : HEVC

  16. Format/Info : High Efficiency Video Coding

  17. Format profile : Main [email protected]@High

  18. HDR format : SMPTE ST 2086, HDR10 compatible

  19. Codec ID : V_MPEGH/ISO/HEVC

  20. Duration : 1 h 43 min

  21. Bit rate : 24.1 Mb/s

  22. Width : 3 840 pixels

  23. Height : 1 828 pixels

  24. Display aspect ratio : 2.101

  25. Frame rate mode : Constant

  26. Frame rate : 23.976 FPS

  27. Color space : YUV

  28. Chroma subsampling : 4:2:0 (Type 2)

  29. Bit depth : 10 bits

  30. Bits/(Pixel*Frame) : 0.143

  31. Stream size : 17.4 GiB (82%)

  32. Language : English

  33. Default : Yes

  34. Forced : No

  35. Color range : Limited

  36. Color primaries : BT.2020

  37. Transfer characteristics : PQ

  38. Matrix coefficients : BT.2020 non-constant

  39. Mastering display color primaries : Display P3

  40. Mastering display luminance : min: 0.0050 cd/m2, max: 1000 cd/m2

  41. Maximum Content Light Level : 2208 cd/m2

  42. Maximum Frame-Average Light Level : 174 cd/m2

  43. Audio #1

  44. ID : 2

  45. Format : E-AC-3 JOC

  46. Format/Info : Enhanced AC-3 with Joint Object Coding

  47. Commercial name : Dolby Digital Plus with Dolby Atmos

  48. Codec ID : A_EAC3

  49. Duration : 1 h 43 min

  50. Bit rate mode : Constant

  51. Bit rate : 768 kb/s

  52. Channel(s) : 6 channels

  53. Channel layout : L R C LFE Ls Rs

  54. Sampling rate : 48.0 kHz

  55. Frame rate : 31.250 FPS (1536 SPF)

  56. Compression mode : Lossy

  57. Stream size : 569 MiB (3%)

  58. Title : English

  59. Language : English

  60. Service kind : Complete Main

  61. Default : Yes

  62. Forced : No

  63. Complexity index : 16

  64. Number of dynamic objects : 15

  65. Bed channel count : 1 channel

  66. Bed channel configuration : LFE

  67. Audio #2

  68. ID : 3

  69. Format : E-AC-3 JOC

  70. Format/Info : Enhanced AC-3 with Joint Object Coding

  71. Commercial name : Dolby Digital Plus with Dolby Atmos

  72. Codec ID : A_EAC3

  73. Duration : 1 h 43 min

  74. Bit rate mode : Constant

  75. Bit rate : 768 kb/s

  76. Channel(s) : 6 channels

  77. Channel layout : L R C LFE Ls Rs

  78. Sampling rate : 48.0 kHz

  79. Frame rate : 31.250 FPS (1536 SPF)

  80. Compression mode : Lossy

  81. Stream size : 569 MiB (3%)

  82. Title : Spanish

  83. Language : Spanish

  84. Service kind : Complete Main

  85. Default : No

  86. Forced : No

  87. Complexity index : 16

  88. Number of dynamic objects : 15

  89. Bed channel count : 1 channel

  90. Bed channel configuration : LFE

  91. Audio #3

  92. ID : 4

  93. Format : E-AC-3 JOC

  94. Format/Info : Enhanced AC-3 with Joint Object Coding

  95. Commercial name : Dolby Digital Plus with Dolby Atmos

  96. Codec ID : A_EAC3

  97. Duration : 1 h 43 min

  98. Bit rate mode : Constant

  99. Bit rate : 768 kb/s

  100. Channel(s) : 6 channels

  101. Channel layout : L R C LFE Ls Rs

  102. Sampling rate : 48.0 kHz

  103. Frame rate : 31.250 FPS (1536 SPF)

  104. Compression mode : Lossy

  105. Stream size : 569 MiB (3%)

  106. Title : Japanese

  107. Language : Japanese

  108. Service kind : Complete Main

  109. Default : No

  110. Forced : No

  111. Complexity index : 16

  112. Number of dynamic objects : 15

  113. Bed channel count : 1 channel

  114. Bed channel configuration : LFE

  115. Audio #4

  116. ID : 5

  117. Format : E-AC-3 JOC

  118. Format/Info : Enhanced AC-3 with Joint Object Coding

  119. Commercial name : Dolby Digital Plus with Dolby Atmos

  120. Codec ID : A_EAC3

  121. Duration : 1 h 43 min

  122. Bit rate mode : Constant

  123. Bit rate : 768 kb/s

  124. Channel(s) : 6 channels

  125. Channel layout : L R C LFE Ls Rs

  126. Sampling rate : 48.0 kHz

  127. Frame rate : 31.250 FPS (1536 SPF)

  128. Compression mode : Lossy

  129. Stream size : 569 MiB (3%)

  130. Title : German

  131. Language : German

  132. Service kind : Complete Main

  133. Default : No

  134. Forced : No

  135. Complexity index : 16

  136. Number of dynamic objects : 15

  137. Bed channel count : 1 channel

  138. Bed channel configuration : LFE

  139. Audio #5

  140. ID : 6

  141. Format : E-AC-3 JOC

  142. Format/Info : Enhanced AC-3 with Joint Object Coding

  143. Commercial name : Dolby Digital Plus with Dolby Atmos

  144. Codec ID : A_EAC3

  145. Duration : 1 h 43 min

  146. Bit rate mode : Constant

  147. Bit rate : 768 kb/s

  148. Channel(s) : 6 channels

  149. Channel layout : L R C LFE Ls Rs

  150. Sampling rate : 48.0 kHz

  151. Frame rate : 31.250 FPS (1536 SPF)

  152. Compression mode : Lossy

  153. Stream size : 569 MiB (3%)

  154. Title : French

  155. Language : French

  156. Service kind : Complete Main

  157. Default : No

  158. Forced : No

  159. Complexity index : 16

  160. Number of dynamic objects : 15

  161. Bed channel count : 1 channel

  162. Bed channel configuration : LFE

  163. Audio #6

  164. ID : 7

  165. Format : E-AC-3 JOC

  166. Format/Info : Enhanced AC-3 with Joint Object Coding

  167. Commercial name : Dolby Digital Plus with Dolby Atmos

  168. Codec ID : A_EAC3

  169. Duration : 1 h 43 min

  170. Bit rate mode : Constant

  171. Bit rate : 768 kb/s

  172. Channel(s) : 6 channels

  173. Channel layout : L R C LFE Ls Rs

  174. Sampling rate : 48.0 kHz

  175. Frame rate : 31.250 FPS (1536 SPF)

  176. Compression mode : Lossy

  177. Stream size : 569 MiB (3%)

  178. Title : Italian

  179. Language : Italian

  180. Service kind : Complete Main

  181. Default : No

  182. Forced : No

  183. Complexity index : 16

  184. Number of dynamic objects : 15

  185. Bed channel count : 1 channel

  186. Bed channel configuration : LFE

  187. Audio #7

  188. ID : 8

  189. Format : E-AC-3 JOC

  190. Format/Info : Enhanced AC-3 with Joint Object Coding

  191. Commercial name : Dolby Digital Plus with Dolby Atmos

  192. Codec ID : A_EAC3

  193. Duration : 1 h 43 min

  194. Bit rate mode : Constant

  195. Bit rate : 768 kb/s

  196. Channel(s) : 6 channels

  197. Channel layout : L R C LFE Ls Rs

  198. Sampling rate : 48.0 kHz

  199. Frame rate : 31.250 FPS (1536 SPF)

  200. Compression mode : Lossy

  201. Stream size : 569 MiB (3%)

  202. Title : Portuguese

  203. Language : Portuguese

  204. Service kind : Complete Main

  205. Default : No

  206. Forced : No

  207. Complexity index : 16

  208. Number of dynamic objects : 15

  209. Bed channel count : 1 channel

  210. Bed channel configuration : LFE

  211. Text #1

  212. ID : 9

  213. Format : UTF-8

  214. Codec ID : S_TEXT/UTF8

  215. Codec ID/Info : UTF-8 Plain Text

  216. Duration : 1 h 43 min

  217. Bit rate : 58 b/s

  218. Count of elements : 1522

  219. Stream size : 44.5 KiB (0%)

  220. Title : 中文 (简体) [SDH]

  221. Language : Chinese

  222. Default : Yes

  223. Forced : No

  224. Text #2

  225. ID : 10

  226. Format : UTF-8

  227. Codec ID : S_TEXT/UTF8

  228. Codec ID/Info : UTF-8 Plain Text

  229. Duration : 1 h 43 min

  230. Bit rate : 59 b/s

  231. Count of elements : 1524

  232. Stream size : 45.0 KiB (0%)

  233. Title : 中文 (繁體) [SDH]

  234. Language : Chinese

  235. Default : No

  236. Forced : No

  237. Text #3

  238. ID : 11

  239. Format : UTF-8

  240. Codec ID : S_TEXT/UTF8

  241. Codec ID/Info : UTF-8 Plain Text

  242. Duration : 1 h 43 min

  243. Bit rate : 59 b/s

  244. Count of elements : 1524

  245. Stream size : 44.7 KiB (0%)

  246. Title : 粵語 (繁體) [SDH]

  247. Language : Chinese

  248. Default : No

  249. Forced : No

  250. Text #4

  251. ID : 12

  252. Format : UTF-8

  253. Codec ID : S_TEXT/UTF8

  254. Codec ID/Info : UTF-8 Plain Text

  255. Duration : 1 h 37 min

  256. Bit rate : 64 b/s

  257. Count of elements : 1480

  258. Stream size : 45.8 KiB (0%)

  259. Title : English [SDH]

  260. Language : English

  261. Default : No

  262. Forced : No

  263. Text #5

  264. ID : 13

  265. Format : UTF-8

  266. Codec ID : S_TEXT/UTF8

  267. Codec ID/Info : UTF-8 Plain Text

  268. Duration : 1 h 43 min

  269. Bit rate : 88 b/s

  270. Count of elements : 1522

  271. Stream size : 67.2 KiB (0%)

  272. Title : ??????? [SDH]

  273. Language : Arabic

  274. Default : No

  275. Forced : No

  276. Text #6

  277. ID : 14

  278. Format : UTF-8

  279. Codec ID : S_TEXT/UTF8

  280. Codec ID/Info : UTF-8 Plain Text

  281. Duration : 1 h 43 min

  282. Bit rate : 98 b/s

  283. Count of elements : 1493

  284. Stream size : 74.8 KiB (0%)

  285. Title : български [SDH]

  286. Language : Bulgarian

  287. Default : No

  288. Forced : No

  289. Text #7

  290. ID : 15

  291. Format : UTF-8

  292. Codec ID : S_TEXT/UTF8

  293. Codec ID/Info : UTF-8 Plain Text

  294. Duration : 1 h 43 min

  295. Bit rate : 59 b/s

  296. Count of elements : 1481

  297. Stream size : 45.2 KiB (0%)

  298. Title : ?e?tina [SDH]

  299. Language : Czech

  300. Default : No

  301. Forced : No

  302. Text #8

  303. ID : 16

  304. Format : UTF-8

  305. Codec ID : S_TEXT/UTF8

  306. Codec ID/Info : UTF-8 Plain Text

  307. Duration : 1 h 43 min

  308. Bit rate : 52 b/s

  309. Count of elements : 1168

  310. Stream size : 39.5 KiB (0%)

  311. Title : dansk [SDH]

  312. Language : Danish

  313. Default : No

  314. Forced : No

  315. Text #9

  316. ID : 17

  317. Format : UTF-8

  318. Codec ID : S_TEXT/UTF8

  319. Codec ID/Info : UTF-8 Plain Text

  320. Duration : 1 h 39 min

  321. Bit rate : 61 b/s

  322. Count of elements : 1448

  323. Stream size : 44.4 KiB (0%)

  324. Title : Deutsch [SDH]

  325. Language : German

  326. Default : No

  327. Forced : No

  328. Text #10

  329. ID : 18

  330. Format : UTF-8

  331. Codec ID : S_TEXT/UTF8

  332. Codec ID/Info : UTF-8 Plain Text

  333. Duration : 1 h 43 min

  334. Bit rate : 105 b/s

  335. Count of elements : 1511

  336. Stream size : 79.6 KiB (0%)

  337. Title : Ελληνικ? [SDH]

  338. Language : Greek

  339. Default : No

  340. Forced : No

  341. Text #11

  342. ID : 19

  343. Format : UTF-8

  344. Codec ID : S_TEXT/UTF8

  345. Codec ID/Info : UTF-8 Plain Text

  346. Duration : 1 h 39 min

  347. Bit rate : 63 b/s

  348. Count of elements : 1524

  349. Stream size : 46.3 KiB (0%)

  350. Title : espa?ol (Latinoamérica) [SDH]

  351. Language : Spanish

  352. Default : No

  353. Forced : No

  354. Text #12

  355. ID : 20

  356. Format : UTF-8

  357. Codec ID : S_TEXT/UTF8

  358. Codec ID/Info : UTF-8 Plain Text

  359. Duration : 1 h 39 min

  360. Bit rate : 62 b/s

  361. Count of elements : 1521

  362. Stream size : 45.5 KiB (0%)

  363. Title : espa?ol (Espa?a) [SDH]

  364. Language : Spanish

  365. Default : No

  366. Forced : No

  367. Text #13

  368. ID : 21

  369. Format : UTF-8

  370. Codec ID : S_TEXT/UTF8

  371. Codec ID/Info : UTF-8 Plain Text

  372. Duration : 1 h 43 min

  373. Bit rate : 61 b/s

  374. Count of elements : 1478

  375. Stream size : 46.5 KiB (0%)

  376. Title : eesti [SDH]

  377. Language : Estonian

  378. Default : No

  379. Forced : No

  380. Text #14

  381. ID : 22

  382. Format : UTF-8

  383. Codec ID : S_TEXT/UTF8

  384. Codec ID/Info : UTF-8 Plain Text

  385. Duration : 1 h 43 min

  386. Bit rate : 61 b/s

  387. Count of elements : 1517

  388. Stream size : 46.5 KiB (0%)

  389. Title : suomi [SDH]

  390. Language : Finnish

  391. Default : No

  392. Forced : No

  393. Text #15

  394. ID : 23

  395. Format : UTF-8

  396. Codec ID : S_TEXT/UTF8

  397. Codec ID/Info : UTF-8 Plain Text

  398. Duration : 1 h 39 min

  399. Bit rate : 65 b/s

  400. Count of elements : 1482

  401. Stream size : 47.6 KiB (0%)

  402. Title : fran?ais (Canada) [SDH]

  403. Language : French

  404. Default : No

  405. Forced : No

  406. Text #16

  407. ID : 24

  408. Format : UTF-8

  409. Codec ID : S_TEXT/UTF8

  410. Codec ID/Info : UTF-8 Plain Text

  411. Duration : 1 h 39 min

  412. Bit rate : 65 b/s

  413. Count of elements : 1480

  414. Stream size : 47.5 KiB (0%)

  415. Title : fran?ais (France) [SDH]

  416. Language : French

  417. Default : No

  418. Forced : No

  419. Text #17

  420. ID : 25

  421. Format : UTF-8

  422. Codec ID : S_TEXT/UTF8

  423. Codec ID/Info : UTF-8 Plain Text

  424. Duration : 1 h 43 min

  425. Bit rate : 85 b/s

  426. Count of elements : 1522

  427. Stream size : 64.9 KiB (0%)

  428. Title : ????? [SDH]

  429. Language : Hebrew

  430. Default : No

  431. Forced : No

  432. Text #18

  433. ID : 26

  434. Format : UTF-8

  435. Codec ID : S_TEXT/UTF8

  436. Codec ID/Info : UTF-8 Plain Text

  437. Duration : 1 h 43 min

  438. Bit rate : 173 b/s

  439. Count of elements : 1524

  440. Stream size : 131 KiB (0%)

  441. Title : ?????? [SDH]

  442. Language : Hindi

  443. Default : No

  444. Forced : No

  445. Text #19

  446. ID : 27

  447. Format : UTF-8

  448. Codec ID : S_TEXT/UTF8

  449. Codec ID/Info : UTF-8 Plain Text

  450. Duration : 1 h 43 min

  451. Bit rate : 63 b/s

  452. Count of elements : 1516

  453. Stream size : 47.8 KiB (0%)

  454. Title : magyar [SDH]

  455. Language : Hungarian

  456. Default : No

  457. Forced : No

  458. Text #20

  459. ID : 28

  460. Format : UTF-8

  461. Codec ID : S_TEXT/UTF8

  462. Codec ID/Info : UTF-8 Plain Text

  463. Duration : 1 h 43 min

  464. Bit rate : 63 b/s

  465. Count of elements : 1517

  466. Stream size : 48.0 KiB (0%)

  467. Title : bahasa Indonesia [SDH]

  468. Language : Indonesian

  469. Default : No

  470. Forced : No

  471. Text #21

  472. ID : 29

  473. Format : UTF-8

  474. Codec ID : S_TEXT/UTF8

  475. Codec ID/Info : UTF-8 Plain Text

  476. Duration : 1 h 39 min

  477. Bit rate : 64 b/s

  478. Count of elements : 1522

  479. Stream size : 47.1 KiB (0%)

  480. Title : italiano [SDH]

  481. Language : Italian

  482. Default : No

  483. Forced : No

  484. Text #22

  485. ID : 30

  486. Format : UTF-8

  487. Codec ID : S_TEXT/UTF8

  488. Codec ID/Info : UTF-8 Plain Text

  489. Duration : 1 h 43 min

  490. Bit rate : 80 b/s

  491. Count of elements : 1547

  492. Stream size : 60.8 KiB (0%)

  493. Title : 日本語 [SDH]

  494. Language : Japanese

  495. Default : No

  496. Forced : No

  497. Text #23

  498. ID : 31

  499. Format : UTF-8

  500. Codec ID : S_TEXT/UTF8

  501. Codec ID/Info : UTF-8 Plain Text

  502. Duration : 1 h 43 min

  503. Bit rate : 75 b/s

  504. Count of elements : 1524

  505. Stream size : 57.3 KiB (0%)

  506. Title : ??? [SDH]

  507. Language : Korean

  508. Default : No

  509. Forced : No

  510. Text #24

  511. ID : 32

  512. Format : UTF-8

  513. Codec ID : S_TEXT/UTF8

  514. Codec ID/Info : UTF-8 Plain Text

  515. Duration : 1 h 43 min

  516. Bit rate : 64 b/s

  517. Count of elements : 1518

  518. Stream size : 48.7 KiB (0%)

  519. Title : lietuvi? [SDH]

  520. Language : Lithuanian

  521. Default : No

  522. Forced : No

  523. Text #25

  524. ID : 33

  525. Format : UTF-8

  526. Codec ID : S_TEXT/UTF8

  527. Codec ID/Info : UTF-8 Plain Text

  528. Duration : 1 h 43 min

  529. Bit rate : 64 b/s

  530. Count of elements : 1516

  531. Stream size : 49.1 KiB (0%)

  532. Title : latvie?u [SDH]

  533. Language : Latvian

  534. Default : No

  535. Forced : No

  536. Text #26

  537. ID : 34

  538. Format : UTF-8

  539. Codec ID : S_TEXT/UTF8

  540. Codec ID/Info : UTF-8 Plain Text

  541. Duration : 1 h 43 min

  542. Bit rate : 66 b/s

  543. Count of elements : 1516

  544. Stream size : 50.0 KiB (0%)

  545. Title : bahasa Malaysia [SDH]

  546. Language : Malay

  547. Default : No

  548. Forced : No

  549. Text #27

  550. ID : 35

  551. Format : UTF-8

  552. Codec ID : S_TEXT/UTF8

  553. Codec ID/Info : UTF-8 Plain Text

  554. Duration : 1 h 43 min

  555. Bit rate : 58 b/s

  556. Count of elements : 1439

  557. Stream size : 44.3 KiB (0%)

  558. Title : norsk bokm?l [SDH]

  559. Language : Norwegian Bokmal

  560. Default : No

  561. Forced : No

  562. Text #28

  563. ID : 36

  564. Format : UTF-8

  565. Codec ID : S_TEXT/UTF8

  566. Codec ID/Info : UTF-8 Plain Text

  567. Duration : 1 h 43 min

  568. Bit rate : 58 b/s

  569. Count of elements : 1339

  570. Stream size : 44.1 KiB (0%)

  571. Title : Nederlands [SDH]

  572. Language : Dutch

  573. Default : No

  574. Forced : No

  575. Text #29

  576. ID : 37

  577. Format : UTF-8

  578. Codec ID : S_TEXT/UTF8

  579. Codec ID/Info : UTF-8 Plain Text

  580. Duration : 1 h 43 min

  581. Bit rate : 57 b/s

  582. Count of elements : 1449

  583. Stream size : 43.9 KiB (0%)

  584. Title : polski [SDH]

  585. Language : Polish

  586. Default : No

  587. Forced : No

  588. Text #30

  589. ID : 38

  590. Format : UTF-8

  591. Codec ID : S_TEXT/UTF8

  592. Codec ID/Info : UTF-8 Plain Text

  593. Duration : 1 h 43 min

  594. Bit rate : 63 b/s

  595. Count of elements : 1518

  596. Stream size : 48.3 KiB (0%)

  597. Title : português [SDH]

  598. Language : Portuguese

  599. Default : No

  600. Forced : No

  601. Text #31

  602. ID : 39

  603. Format : UTF-8

  604. Codec ID : S_TEXT/UTF8

  605. Codec ID/Info : UTF-8 Plain Text

  606. Duration : 1 h 39 min

  607. Bit rate : 64 b/s

  608. Count of elements : 1506

  609. Stream size : 46.9 KiB (0%)

  610. Title : português (Brasil) [SDH]

  611. Language : Portuguese

  612. Default : No

  613. Forced : No

  614. Text #32

  615. ID : 40

  616. Format : UTF-8

  617. Codec ID : S_TEXT/UTF8

  618. Codec ID/Info : UTF-8 Plain Text

  619. Duration : 1 h 43 min

  620. Bit rate : 104 b/s

  621. Count of elements : 1523

  622. Stream size : 78.7 KiB (0%)

  623. Title : русский [SDH]

  624. Language : Russian

  625. Default : No

  626. Forced : No

  627. Text #33

  628. ID : 41

  629. Format : UTF-8

  630. Codec ID : S_TEXT/UTF8

  631. Codec ID/Info : UTF-8 Plain Text

  632. Duration : 1 h 43 min

  633. Bit rate : 60 b/s

  634. Count of elements : 1518

  635. Stream size : 46.0 KiB (0%)

  636. Title : sloven?ina [SDH]

  637. Language : Slovak

  638. Default : No

  639. Forced : No

  640. Text #34

  641. ID : 42

  642. Format : UTF-8

  643. Codec ID : S_TEXT/UTF8

  644. Codec ID/Info : UTF-8 Plain Text

  645. Duration : 1 h 43 min

  646. Bit rate : 53 b/s

  647. Count of elements : 1501

  648. Stream size : 40.2 KiB (0%)

  649. Title : sloven??ina [SDH]

  650. Language : Slovenian

  651. Default : No

  652. Forced : No

  653. Text #35

  654. ID : 43

  655. Format : UTF-8

  656. Codec ID : S_TEXT/UTF8

  657. Codec ID/Info : UTF-8 Plain Text

  658. Duration : 1 h 43 min

  659. Bit rate : 62 b/s

  660. Count of elements : 1496

  661. Stream size : 47.0 KiB (0%)

  662. Title : svenska [SDH]

  663. Language : Swedish

  664. Default : No

  665. Forced : No

  666. Text #36

  667. ID : 44

  668. Format : UTF-8

  669. Codec ID : S_TEXT/UTF8

  670. Codec ID/Info : UTF-8 Plain Text

  671. Duration : 1 h 43 min

  672. Bit rate : 218 b/s

  673. Count of elements : 1522

  674. Stream size : 165 KiB (0%)

  675. Title : ????? [SDH]

  676. Language : Tamil

  677. Default : No

  678. Forced : No

  679. Text #37

  680. ID : 45

  681. Format : UTF-8

  682. Codec ID : S_TEXT/UTF8

  683. Codec ID/Info : UTF-8 Plain Text

  684. Duration : 1 h 43 min

  685. Bit rate : 192 b/s

  686. Count of elements : 1522

  687. Stream size : 145 KiB (0%)

  688. Title : ?????? [SDH]

  689. Language : Telugu

  690. Default : No

  691. Forced : No

  692. Text #38

  693. ID : 46

  694. Format : UTF-8

  695. Codec ID : S_TEXT/UTF8

  696. Codec ID/Info : UTF-8 Plain Text

  697. Duration : 1 h 43 min

  698. Bit rate : 157 b/s

  699. Count of elements : 1522

  700. Stream size : 119 KiB (0%)

  701. Title : ??? [SDH]

  702. Language : Thai

  703. Default : No

  704. Forced : No

  705. Text #39

  706. ID : 47

  707. Format : UTF-8

  708. Codec ID : S_TEXT/UTF8

  709. Codec ID/Info : UTF-8 Plain Text

  710. Duration : 1 h 43 min

  711. Bit rate : 65 b/s

  712. Count of elements : 1519

  713. Stream size : 49.5 KiB (0%)

  714. Title : Türk?e [SDH]

  715. Language : Turkish

  716. Default : No

  717. Forced : No

  718. Text #40

  719. ID : 48

  720. Format : UTF-8

  721. Codec ID : S_TEXT/UTF8

  722. Codec ID/Info : UTF-8 Plain Text

  723. Duration : 1 h 43 min

  724. Bit rate : 90 b/s

  725. Count of elements : 1523

  726. Stream size : 68.7 KiB (0%)

  727. Title : укра?нська [SDH]

  728. Language : Ukrainian

  729. Default : No

  730. Forced : No

  731. Text #41

  732. ID : 49

  733. Format : UTF-8

  734. Codec ID : S_TEXT/UTF8

  735. Codec ID/Info : UTF-8 Plain Text

  736. Duration : 1 h 43 min

  737. Bit rate : 83 b/s

  738. Count of elements : 1522

  739. Stream size : 63.4 KiB (0%)

  740. Title : Ti?ng Vi?t [SDH]

  741. Language : Vietnamese

  742. Default : No

  743. Forced : No



文件下载


除非特别注明,本文『天空的尽头是另一片天空[简繁英字幕].The.Sky.Is.Everywhere.2022.2160p.ATVP.WEB-DL.H265.10bit.HDR.DDP5.1.Atmos-TAGWEB 2』来源于互联网机器人自动抓取,非本站原创。 浮游电影网不对本文拥有版权,如有侵犯,请联系邮箱:fuyouu#yandex.com[#换成@]投诉。我们会在15个工作日内删除。 但烦请转载时请标明出处:“本文转载于『浮游电影网』,原文地址:https://www.fuyouu.com/22787.html

评论吧骚年!

发表你的见解   

昵称*

E-mail*(建议输入,以便收到博主回复的提示邮件)

验证码*

您可以使用eMule或eMule Mod(Windows)、aMule(Win、Linux、Mac)等软件下载eD2k链接。。
eMule收藏集(.emulecollection)文件是您选中的所有链接的列表文件。eMule可以直接下载它们。
按住SHIFT键选择可以选中多个选择框。
可用文件名和大小选择器来选择文件。
文件名选择器帮您根据文件名称或后缀来选择文件。不分大小写。
符号使用:
和:空格( )、+
不包含:-
或:|
转义:一对英文引号("");
匹配开头:^
匹配结尾:$
例如:
选中所有名称中包含有“eMule”或“0.49c”字眼,但不包含有“exe”字眼的:emule|0.49c -exe
选中所有名称的开头是“eMule”,结尾是“0.49c”的:^emule 0.49c$
选中所有名称中带有“eMule 0.49c”的(必须是“eMule 0.49c”,中间没有别的字符,不能是“eMule fake 0.49c”),需要转义:"emule 0.49c"
大小选择器帮您根据文件大小选择文件。