当前位置: 首页 >> 欧美电影 >> 企鹅群里有特务[共3部合集][简繁英双语字幕].BBC.Penguins.Spy.In.The.Huddle.2013.EP01-EP03.BluRay.1080p.DTS-HD.MA.2.0.x26 >> 正文

企鹅群里有特务[共3部合集][简繁英双语字幕].BBC.Penguins.Spy.In.The.Huddle.2013.EP01-EP03.BluRay.1080p.DTS-HD.MA.2.0.x26

2022年08月22日 11:22:10     电影发布:来源于网络     电影分类:欧美电影     评论(0)    

企鹅群里有特务[共3部合集][简繁英双语字幕].BBC.Penguins.Spy.In.The.Huddle.2013.EP01-EP03.BluRay.1080p.DTS-HD.MA.2.0.x265.10bit-ALT 18.75GB

◎标 题 企鹅群里有特务

◎译 名 卧底企鹅帮 / 企鹅卧底日记 / 企鵝的祕密生活(台)

◎片 名 Penguins: Spy in the Huddle

◎年 代 2012

◎产 地 英国

◎类 别 纪录片

◎语 言 英语

◎上映日期 2012-02-11(英国)

◎IMDb评分 8.4/10 (410人评价)

◎IMDb链接 https://www.imdb.com/title/tt2747660/

◎豆瓣评分 9.7/10 (14573人评价)

◎豆瓣链接 https://movie.douban.com/subject/21355794/

◎片 长 60分钟

◎导 演 约翰·唐纳 John Downer

◎演 员 大卫·田纳特 David Tennant

◎简 介

为了贴近拍摄到企鹅真实的生活状态,BBC派出约五十人组成的摄影团队,在将近一年的时间里,对生活在热带秘鲁的洪堡企鹅、生活在亚南极海岛上的跳岩企鹅,以及生活在寒带南极的帝企鹅进行了跟踪拍摄。不过这次剧组别出心裁,派出“特务”混入企鹅的队伍中,比如将摄像机藏入遥控企鹅体内,或干脆将摄像机伪装成一枚企鹅蛋。也因此得以在超近距离观察这群憨态可掬的小家伙超真实的生活画面。在镜头中,观众得以再次见证帝企鹅宝宝从出生到长大这一壮丽而又严苛的重要阶段,见证了洪堡企鹅卖萌耍宝的各种可爱瞬间,当然也从“企鹅蛋”的视角陪同小家伙们恣意疯狂了一下。

别样的视角,展现出企鹅族群不平凡的一面。

  1. 合集文件列表:

  2. 1.BBC.Penguins.Spy.In.The.Huddle.2013.EP01.BluRay.1080p.DTS-HD.MA.2.0.x265.10bit-ALT.mkv 6.66GB

  3. 2.BBC.Penguins.Spy.In.The.Huddle.2013.EP02.BluRay.1080p.DTS-HD.MA.2.0.x265.10bit-ALT.mkv 5.90GB

  4. 3.BBC.Penguins.Spy.In.The.Huddle.2013.EP03.BluRay.1080p.DTS-HD.MA.2.0.x265.10bit-ALT.mkv 6.18GB


复制代码

  1. ##### MediaInfo ######

  2. General

  3. Unique ID : 297238911427888599233696572145782795465 (0xDF9E21CBC64C078A0CCC2B7F8034ACC9)

  4. Complete name : BBC.Penguins.Spy.In.The.Huddle.2013.EP01.BluRay.1080p.DTS-HD.MA.2.0.x265.10bit-ALT.mkv

  5. Format : Matroska

  6. Format version : Version 4

  7. File size : 6.66 GiB

  8. Duration : 59 min 15 s

  9. Overall bit rate mode : Variable

  10. Overall bit rate : 16.1 Mb/s

  11. Encoded date : UTC 2020-07-23 02:49:15

  12. Writing application : mkvmerge v48.0.0 ('Fortress Around Your Heart') 64-bit

  13. Writing library : libebml v1.4.0 + libmatroska v1.6.0

  14. Video

  15. ID : 1

  16. Format : HEVC

  17. Format/Info : High Efficiency Video Coding

  18. Format profile : Main [email protected]@High

  19. Codec ID : V_MPEGH/ISO/HEVC

  20. Duration : 59 min 15 s

  21. Bit rate : 15.0 Mb/s

  22. Width : 1 920 pixels

  23. Height : 1 080 pixels

  24. Display aspect ratio : 16:9

  25. Frame rate mode : Constant

  26. Frame rate : 25.000 FPS

  27. Color space : YUV

  28. Chroma subsampling : 4:2:0

  29. Bit depth : 10 bits

  30. Bits/(Pixel*Frame) : 0.289

  31. Stream size : 6.21 GiB (93%)

  32. Title : HEVC, [email protected]@High, 25 fps @ 15006 kbps

  33. Writing library : x265 3.3+1-g396395b2b:[Windows][GCC 9.2.0][64 bit] 10bit

  34. Encoding settings : cpuid=533541111039 / frame-threads=3 / numa-pools=8 / wpp / pmode / pme / no-psnr / no-ssim / log-level=2 / input-csp=1 / input-res=1920x1080 / interlace=0 / total-frames=88876 / level-idc=51 / high-tier=1 / uhd-bd=0 / ref=5 / no-allow-non-conformance / no-repeat-headers / annexb / no-aud / no-hrd / info / hash=0 / no-temporal-layers / open-gop / min-keyint=24 / keyint=240 / gop-lookahead=0 / bframes=6 / b-adapt=2 / b-pyramid / bframe-bias=0 / rc-lookahead=40 / lookahead-slices=0 / NTMzNTQ=uuDQuD2mJt9fsCf / scenecut=40 / hist-scenecut=0 / radl=0 / no-splice / no-intra-refresh / ctu=32 / min-cu-size=8 / no-rect / no-amp / max-tu-size=32 / tu-inter-depth=3 / tu-intra-depth=3 / limit-tu=4 / rdoq-level=2 / dynamic-rd=0.00 / no-ssim-rd / signhide / no-tskip / nr-intra=0 / nr-inter=0 / no-constrained-intra / no-strong-intra-smoothing / max-merge=4 / limit-refs=1 / limit-modes / me=3 / subme=4 / merange=25 / temporal-mvp / no-frame-dup / no-hme / weightp / weightb / no-analyze-src-pics / deblock=-3:-3 / no-sao / no-sao-non-deblock / rd=6 / selective-sao=0 / no-early-skip / rskip / no-fast-intra / no-tskip-fast / no-cu-lossless / b-intra / no-splitrd-skip / rdpenalty=0 / psy-rd=2.00 / psy-rdoq=1.00 / no-rd-refine / no-lossless / cbqpoffs=0 / crqpoffs=0 / rc=crf / crf=19.5 / qcomp=0.65 / qpstep=4 / stats-write=0 / stats-read=0 / vbv-maxrate=80000 / vbv-bufsize=80000 / vbv-init=0.9 / crf-max=0.0 / crf-min=0.0 / ipratio=1.40 / pbratio=1.30 / aq-mode=2 / aq-strength=0.85 / cutree / zone-count=0 / no-strict-cbr / qg-size=32 / no-rc-grain / qpmax=69 / qpmin=0 / no-const-vbv / sar=1 / overscan=0 / videoformat=5 / range=0 / colorprim=1 / transfer=1 / colormatrix=1 / chromaloc=0 / display-window=0 / cll=0,0 / min-luma=0 / max-luma=1023 / log2-max-poc-lsb=8 / vui-timing-info / vui-hrd-info / slices=1 / no-opt-qp-pps / no-opt-ref-list-length-pps / no-multi-pass-opt-rps / scenecut-bias=0.05 / hist-threshold=0.01 / no-opt-cu-delta-qp / no-aq-motion / no-hdr10 / no-hdr10-opt / no-dhdr10-opt / no-idr-recovery-sei / analysis-reuse-level=0 / analysis-save-reuse-level=0 / analysis-load-reuse-level=0 / scale-factor=0 / refine-intra=0 / refine-inter=0 / refine-mv=1 / refine-ctu-distortion=0 / no-limit-sao / ctu-info=0 / no-lowpass-dct / refine-analysis-type=0 / copy-pic=1 / max-ausize-factor=1.0 / no-dynamic-refine / no-single-sei / no-hevc-aq / no-svt / no-field / qp-adaptation-range=1.00 / no-scenecut-aware-qpconformance-window-offsets / right=0 / bottom=0 / NTMzNTQ=

  35. Language : English

  36. Default : Yes

  37. Forced : No

  38. Color range : Limited

  39. Color primaries : BT.709

  40. Transfer characteristics : BT.709

  41. Matrix coefficients : BT.709

  42. Audio

  43. ID : 2

  44. Format : DTS XLL

  45. Format/Info : Digital Theater Systems

  46. Commercial name : DTS-HD Master Audio

  47. Codec ID : A_DTS

  48. Duration : 59 min 13 s

  49. Bit rate mode : Variable

  50. Bit rate : 996 kb/s

  51. Channel(s) : 2 channels

  52. Channel layout : L R

  53. Sampling rate : 48.0 kHz

  54. Frame rate : 93.750 FPS (512 SPF)

  55. Bit depth : 16 bits

  56. Compression mode : Lossless

  57. Stream size : 422 MiB (6%)

  58. Title : English DTS-HD Master Audio 2.0 @ 997 kbps

  59. Language : English

  60. Default : Yes

  61. Forced : No

  62. Text #1

  63. ID : 3

  64. Format : PGS

  65. Codec ID : S_HDMV/PGS

  66. Codec ID/Info : Picture based subtitle format used on BDs/HD-DVDs

  67. Duration : 58 min 27 s

  68. Bit rate : 32.0 kb/s

  69. Count of elements : 806

  70. Stream size : 13.4 MiB (0%)

  71. Title : Eng/SUP

  72. Language : English

  73. Default : No

  74. Forced : No

  75. Text #2

  76. ID : 4

  77. Format : PGS

  78. Codec ID : S_HDMV/PGS

  79. Codec ID/Info : Picture based subtitle format used on BDs/HD-DVDs

  80. Duration : 58 min 35 s

  81. Bit rate : 28.3 kb/s

  82. Count of elements : 946

  83. Stream size : 11.9 MiB (0%)

  84. Title : Chs/SUP 简英双语

  85. Language : Chinese

  86. Default : Yes

  87. Forced : No

  88. Text #3

  89. ID : 5

  90. Format : PGS

  91. Codec ID : S_HDMV/PGS

  92. Codec ID/Info : Picture based subtitle format used on BDs/HD-DVDs

  93. Duration : 58 min 35 s

  94. Bit rate : 28.9 kb/s

  95. Count of elements : 946

  96. Stream size : 12.1 MiB (0%)

  97. Title : Cht/SUP 繁英双语

  98. Language : Chinese

  99. Default : No

  100. Forced : No

  101. Menu

  102. 00:00:00.000 : en:第 01 章

  103. 00:01:49.040 : en:第 02 章

  104. 00:14:59.560 : en:第 03 章

  105. 00:29:03.440 : en:第 04 章

  106. 00:45:37.400 : en:第 05 章

  107. 00:58:29.920 : en:第 06 章


复制代码



文件下载


除非特别注明,本文『企鹅群里有特务[共3部合集][简繁英双语字幕].BBC.Penguins.Spy.In.The.Huddle.2013.EP01-EP03.BluRay.1080p.DTS-HD.MA.2.0.x26』来源于互联网机器人自动抓取,非本站原创。 浮游电影网不对本文拥有版权,如有侵犯,请联系邮箱:fuyouu#yandex.com[#换成@]投诉。我们会在15个工作日内删除。 但烦请转载时请标明出处:“本文转载于『浮游电影网』,原文地址:https://www.fuyouu.com/22786.html

评论吧骚年!

发表你的见解   

昵称*

E-mail*(建议输入,以便收到博主回复的提示邮件)

验证码*

您可以使用eMule或eMule Mod(Windows)、aMule(Win、Linux、Mac)等软件下载eD2k链接。。
eMule收藏集(.emulecollection)文件是您选中的所有链接的列表文件。eMule可以直接下载它们。
按住SHIFT键选择可以选中多个选择框。
可用文件名和大小选择器来选择文件。
文件名选择器帮您根据文件名称或后缀来选择文件。不分大小写。
符号使用:
和:空格( )、+
不包含:-
或:|
转义:一对英文引号("");
匹配开头:^
匹配结尾:$
例如:
选中所有名称中包含有“eMule”或“0.49c”字眼,但不包含有“exe”字眼的:emule|0.49c -exe
选中所有名称的开头是“eMule”,结尾是“0.49c”的:^emule 0.49c$
选中所有名称中带有“eMule 0.49c”的(必须是“eMule 0.49c”,中间没有别的字符,不能是“eMule fake 0.49c”),需要转义:"emule 0.49c"
大小选择器帮您根据文件大小选择文件。