当前位置: 首页 >> 欧美电影 >> 地球脉动 第一季[共11部合集][国英多音轨/简繁英字幕].BBC.Planet.Earth.2006.EP01-EP11.BluRay.1080p.2Audio.AC3.x265.10bit-ALT >> 正文

地球脉动 第一季[共11部合集][国英多音轨/简繁英字幕].BBC.Planet.Earth.2006.EP01-EP11.BluRay.1080p.2Audio.AC3.x265.10bit-ALT

2022年08月22日 11:15:37     电影发布:来源于网络     电影分类:欧美电影     评论(0)    

地球脉动 第一季[共11部合集][国英多音轨/简繁英字幕].BBC.Planet.Earth.2006.EP01-EP11.BluRay.1080p.2Audio.AC3.x265.10bit-ALT 51.49GB

◎标 题 地球脉动 第一季

◎译 名 行星地球 / 我们的地球 / 地球无限 / 地球动脉 / 地球无垠 / 地球的力量

◎片 名 Planet Earth Season 1

◎年 代 2006

◎产 地 英国

◎类 别 纪录片

◎语 言 英语 / 德语

◎上映日期 2006-02-27

◎IMDb评分 9.4/10 (190908人评价)

◎IMDb链接 https://www.imdb.com/title/tt0795176/

◎豆瓣评分 9.7/10 (49491人评价)

◎豆瓣链接 https://movie.douban.com/subject/1871906/

◎片 长 60分钟

◎导 演 艾雷斯泰·法瑟吉尔 Alastair Fothergill

◎编 剧 大卫·爱登堡 David Attenborough

艾雷斯泰·法瑟吉尔 Alastair Fothergill

◎演 员 大卫·爱登堡 David Attenborough

西格妮·韦弗 Sigourney Weaver

艾雷斯泰·法瑟吉尔 Alastair Fothergill

凯拉·雷内尔 Kera Rennert

贾斯汀·安德森 Justin Anderson

乔治·芬顿 George Fenton

山姆·沃茨 Sam Watts

西蒙·金 Simon King

道格·艾伦 Doug Allen

◎简 介

BBC曾经制作出《蓝色星球》的纪录片摄影团队,再次集结奉上了这部堪称难以超越的经典纪录片《地球脉动》。从南极到北极,从赤道到寒带,从非洲草原到热带雨林,再从荒凉峰顶到深邃大海,难以数计的生物以极其绝美的身姿呈现在世人面前。我们看到了Okavango洪水的涨落及其周边赖以生存的动物们的生存状态,看到了罕见的雪豹在漫天大雪中猎食的珍贵画面;看到了冰原上企鹅、北极熊、海豹等生物相互依存的严苛情景,也见识了生活在大洋深处火山口高温环境下的惊奇生物。当然还有地球各地的壮观美景与奇特地貌,无私地将其最为光艳的一面展现出来。

本片共计11集,期间还采用美国军方发明的空中摄影机拍摄,可从一公里外拍摄某物体的超清晰特写。

  1. 合集文件列表:

  2. 1.BBC.Planet.Earth.2006.EP01.BluRay.1080p.2Audio.AC3.x265.10bit-ALT.mkv 5.02GB

  3. 2.BBC.Planet.Earth.2006.EP02.BluRay.1080p.2Audio.AC3.x265.10bit-ALT.mkv 4.45GB

  4. 3.BBC.Planet.Earth.2006.EP03.BluRay.1080p.2Audio.AC3.x265.10bit-ALT.mkv 6.07GB

  5. 4.BBC.Planet.Earth.2006.EP04.BluRay.1080p.2Audio.AC3.x265.10bit-ALT.mkv 4.61GB

  6. 5.BBC.Planet.Earth.2006.EP05.BluRay.1080p.2Audio.AC3.x265.10bit-ALT.mkv 4.78GB

  7. 6.BBC.Planet.Earth.2006.EP06.BluRay.1080p.2Audio.AC3.x265.10bit-ALT.mkv 3.28GB

  8. 7.BBC.Planet.Earth.2006.EP07.BluRay.1080p.2Audio.AC3.x265.10bit-ALT.mkv 5.29GB

  9. 8.BBC.Planet.Earth.2006.EP08.BluRay.1080p.2Audio.AC3.x265.10bit-ALT.mkv 4.24GB

  10. 9.BBC.Planet.Earth.2006.EP09.BluRay.1080p.2Audio.AC3.x265.10bit-ALT.mkv 5.69GB

  11. 10.BBC.Planet.Earth.2006.EP10.BluRay.1080p.2Audio.AC3.x265.10bit-ALT.mkv 4.27GB

  12. 11.BBC.Planet.Earth.2006.EP11.BluRay.1080p.2Audio.AC3.x265.10bit-ALT.mkv 3.78GB


复制代码

  1. ##### MediaInfo ######

  2. General

  3. Unique ID : 284641372749628790755343878690909556529 (0xD623EF2F87AC9F592127D39D5B298F31)

  4. Complete name : BBC.Planet.Earth.2006.EP01.BluRay.1080p.2Audio.AC3.x265.10bit-ALT.mkv

  5. Format : Matroska

  6. Format version : Version 4

  7. File size : 5.02 GiB

  8. Duration : 51 min 16 s

  9. Overall bit rate : 14.0 Mb/s

  10. Encoded date : UTC 2020-09-29 02:16:07

  11. Writing application : mkvmerge v50.0.0 ('Awakenings') 64-bit

  12. Writing library : libebml v1.4.0 + libmatroska v1.6.2

  13. Video

  14. ID : 1

  15. Format : HEVC

  16. Format/Info : High Efficiency Video Coding

  17. Format profile : Main [email protected]@High

  18. Codec ID : V_MPEGH/ISO/HEVC

  19. Duration : 51 min 10 s

  20. Bit rate : 13.4 Mb/s

  21. Width : 1 920 pixels

  22. Height : 1 080 pixels

  23. Display aspect ratio : 16:9

  24. Frame rate mode : Constant

  25. Frame rate : 23.976 (24000/1001/53354) FPS

  26. Color space : YUV

  27. Chroma subsampling : 4:2:0

  28. Bit depth : 10 bits

  29. Bits/(Pixel*Frame) : 0.269

  30. Stream size : 4.78 GiB (95%)

  31. Title : HEVC, [email protected]@High, 24/1.001 fps

  32. Writing library : x265 3.3+1-g396395b2b:[Windows][GCC 9.2.0][64 bit] 10bit

  33. Encoding settings : cpuid=533541111039 / frame-threads=3 / numa-pools=8 / wpp / pmode / pme / no-psnr / no-ssim / log-level=2 / input-csp=1 / input-res=1920x1080 / interlace=0 / total-frames=73607 / level-idc=51 / high-tier=1 / uhd-bd=0 / ref=5 / no-allow-non-conformance / no-repeat-headers / annexb / no-aud / no-hrd / info / hash=0 / no-temporal-layers / open-gop / min-keyint=24 / keyint=240 / gop-lookahead=0 / bframes=6 / b-adapt=2 / b-pyramid / bframe-bias=0 / rc-lookahead=40 / lookahead-slices=0 / NTMzNTQ=uuDQuD2mJt9fsCf / scenecut=40 / hist-scenecut=0 / radl=0 / no-splice / no-intra-refresh / ctu=32 / min-cu-size=8 / no-rect / no-amp / max-tu-size=32 / tu-inter-depth=3 / tu-intra-depth=3 / limit-tu=4 / rdoq-level=2 / dynamic-rd=0.00 / no-ssim-rd / signhide / no-tskip / nr-intra=0 / nr-inter=0 / no-constrained-intra / no-strong-intra-smoothing / max-merge=4 / limit-refs=1 / limit-modes / me=3 / subme=4 / merange=25 / temporal-mvp / no-frame-dup / no-hme / weightp / weightb / no-analyze-src-pics / deblock=-3:-3 / no-sao / no-sao-non-deblock / rd=6 / selective-sao=0 / no-early-skip / rskip / no-fast-intra / no-tskip-fast / no-cu-lossless / b-intra / no-splitrd-skip / rdpenalty=0 / psy-rd=2.00 / psy-rdoq=1.00 / no-rd-refine / no-lossless / cbqpoffs=0 / crqpoffs=0 / rc=crf / crf=19.5 / qcomp=0.65 / qpstep=4 / stats-write=0 / stats-read=0 / vbv-maxrate=80000 / vbv-bufsize=80000 / vbv-init=0.9 / crf-max=0.0 / crf-min=0.0 / ipratio=1.40 / pbratio=1.30 / aq-mode=2 / aq-strength=0.85 / cutree / zone-count=0 / no-strict-cbr / qg-size=32 / no-rc-grain / qpmax=69 / qpmin=0 / no-const-vbv / sar=1 / overscan=0 / videoformat=5 / range=0 / colorprim=1 / transfer=1 / colormatrix=1 / chromaloc=0 / display-window=0 / cll=0,0 / min-luma=0 / max-luma=1023 / log2-max-poc-lsb=8 / vui-timing-info / vui-hrd-info / slices=1 / no-opt-qp-pps / no-opt-ref-list-length-pps / no-multi-pass-opt-rps / scenecut-bias=0.05 / hist-threshold=0.01 / no-opt-cu-delta-qp / no-aq-motion / no-hdr10 / no-hdr10-opt / no-dhdr10-opt / no-idr-recovery-sei / analysis-reuse-level=0 / analysis-save-reuse-level=0 / analysis-load-reuse-level=0 / scale-factor=0 / refine-intra=0 / refine-inter=0 / refine-mv=1 / refine-ctu-distortion=0 / no-limit-sao / ctu-info=0 / no-lowpass-dct / refine-analysis-type=0 / copy-pic=1 / max-ausize-factor=1.0 / no-dynamic-refine / no-single-sei / no-hevc-aq / no-svt / no-field / qp-adaptation-range=1.00 / no-scenecut-aware-qpconformance-window-offsets / right=0 / bottom=0 / NTMzNTQ=

  34. Language : English

  35. Default : Yes

  36. Forced : No

  37. Color range : Limited

  38. Color primaries : BT.709

  39. Transfer characteristics : BT.709

  40. Matrix coefficients : BT.709

  41. Audio #1

  42. ID : 2

  43. Format : AC-3

  44. Format/Info : Audio Coding 3

  45. Commercial name : Dolby Digital

  46. Codec ID : A_AC3

  47. Duration : 51 min 16 s

  48. Bit rate mode : Constant

  49. Bit rate : 192 kb/s

  50. Channel(s) : 2 channels

  51. Channel layout : L R

  52. Sampling rate : 48.0 kHz

  53. Frame rate : 31.250 FPS (1536 SPF)

  54. Compression mode : Lossy

  55. Stream size : 70.4 MiB (1%)

  56. Title : English Dolby Digital Audio 2.0 @ 192 kbps

  57. Language : English

  58. Service kind : Complete Main

  59. Default : Yes

  60. Forced : No

  61. Audio #2

  62. ID : 3

  63. Format : AC-3

  64. Format/Info : Audio Coding 3

  65. Commercial name : Dolby Digital

  66. Codec ID : A_AC3

  67. Duration : 51 min 16 s

  68. Bit rate mode : Constant

  69. Bit rate : 384 kb/s

  70. Channel(s) : 6 channels

  71. Channel layout : L R C LFE Ls Rs

  72. Sampling rate : 48.0 kHz

  73. Frame rate : 31.250 FPS (1536 SPF)

  74. Compression mode : Lossy

  75. Stream size : 141 MiB (3%)

  76. Title : Mandarin Dolby Digital Audio 5.1 @ 384 kbps 原生台配国语

  77. Language : Chinese

  78. Service kind : Complete Main

  79. Default : No

  80. Forced : No

  81. Text #1

  82. ID : 4

  83. Format : PGS

  84. Codec ID : S_HDMV/PGS

  85. Codec ID/Info : Picture based subtitle format used on BDs/HD-DVDs

  86. Duration : 49 min 23 s

  87. Bit rate : 34.6 kb/s

  88. Count of elements : 600

  89. Stream size : 12.2 MiB (0%)

  90. Title : Eng/SUP

  91. Language : English

  92. Default : No

  93. Forced : No

  94. Text #2

  95. ID : 5

  96. Format : PGS

  97. Codec ID : S_HDMV/PGS

  98. Codec ID/Info : Picture based subtitle format used on BDs/HD-DVDs

  99. Duration : 49 min 52 s

  100. Bit rate : 36.9 kb/s

  101. Count of elements : 604

  102. Stream size : 13.2 MiB (0%)

  103. Title : Cht/SUP 原盘繁体

  104. Language : Chinese

  105. Default : No

  106. Forced : No

  107. Text #3

  108. ID : 6

  109. Format : PGS

  110. Codec ID : S_HDMV/PGS

  111. Codec ID/Info : Picture based subtitle format used on BDs/HD-DVDs

  112. Duration : 49 min 52 s

  113. Bit rate : 33.0 kb/s

  114. Count of elements : 604

  115. Stream size : 11.8 MiB (0%)

  116. Title : Cht/SUP 原盘简体

  117. Language : Chinese

  118. Default : Yes

  119. Forced : No

  120. Menu

  121. 00:00:00.000 : en:第 01 章

  122. 00:08:51.781 : en:第 02 章

  123. 00:19:12.109 : en:第 03 章

  124. 00:31:04.946 : en:第 04 章

  125. 00:41:17.934 : en:第 05 章



文件下载


除非特别注明,本文『地球脉动 第一季[共11部合集][国英多音轨/简繁英字幕].BBC.Planet.Earth.2006.EP01-EP11.BluRay.1080p.2Audio.AC3.x265.10bit-ALT』来源于互联网机器人自动抓取,非本站原创。 浮游电影网不对本文拥有版权,如有侵犯,请联系邮箱:fuyouu#yandex.com[#换成@]投诉。我们会在15个工作日内删除。 但烦请转载时请标明出处:“本文转载于『浮游电影网』,原文地址:https://www.fuyouu.com/22784.html

评论吧骚年!

发表你的见解   

昵称*

E-mail*(建议输入,以便收到博主回复的提示邮件)

验证码*

您可以使用eMule或eMule Mod(Windows)、aMule(Win、Linux、Mac)等软件下载eD2k链接。。
eMule收藏集(.emulecollection)文件是您选中的所有链接的列表文件。eMule可以直接下载它们。
按住SHIFT键选择可以选中多个选择框。
可用文件名和大小选择器来选择文件。
文件名选择器帮您根据文件名称或后缀来选择文件。不分大小写。
符号使用:
和:空格( )、+
不包含:-
或:|
转义:一对英文引号("");
匹配开头:^
匹配结尾:$
例如:
选中所有名称中包含有“eMule”或“0.49c”字眼,但不包含有“exe”字眼的:emule|0.49c -exe
选中所有名称的开头是“eMule”,结尾是“0.49c”的:^emule 0.49c$
选中所有名称中带有“eMule 0.49c”的(必须是“eMule 0.49c”,中间没有别的字符,不能是“eMule fake 0.49c”),需要转义:"emule 0.49c"
大小选择器帮您根据文件大小选择文件。