当前位置: 首页 >> 动画电影 >> 西行纪之穷奇地洞[国语配音/中文字幕].The.Westward.2022.1080p.WEB-DL.H264.AAC-NUMTV 1.39GB >> 正文

西行纪之穷奇地洞[国语配音/中文字幕].The.Westward.2022.1080p.WEB-DL.H264.AAC-NUMTV 1.39GB

2022年08月21日 09:38:12     电影发布:来源于网络     电影分类:动画电影     评论(0)    

◎标 题 西行纪之穷奇地洞

◎年 代 2022

◎产 地 中国大陆

◎类 别 剧情 / 动作 / 动画

◎语 言 汉语普通话

◎上映日期 2022-08-19(中国大陆)

◎IMDb链接 https://www.imdb.com/title//

◎豆瓣链接 https://movie.douban.com/subject/35489156/

◎简 介

西行小队前往彼岸取永恒之火,途径人间镇,被穷奇地洞的奇幻绮丽之景象所吸引,误入洞中,因此意外得知了穷奇地洞的大妖百眼魔君的阴谋。为阻止即将侵袭整个妖怪大道的惊世之灾,师徒齐心作战,当孙悟空被控制神智,化身巨猿,面对前所未有的绝境与危机,西行小队又将如何逆风翻盘?

  1. ##### MediaInfo ######

  2. General

  3. Complete name : 西行纪之穷奇地洞.The.Westward.2022.1080p.WEB-DL.H264.AAC-NUMTV.mp4

  4. Format : MPEG-4

  5. Format profile : Base Media

  6. Codec ID : isom (isom/iso2/avc1/mp41)

  7. File size : 1.39 GiB

  8. Duration : 1 h 17 min

  9. Overall bit rate mode : Variable

  10. Overall bit rate : 2 557 kb/s

  11. Writing application : OurTV Media Encoder

  12. Video

  13. ID : 1

  14. Format : AVC

  15. Format/Info : Advanced Video Codec

  16. Format profile : [email protected]

  17. Format settings : CABAC / 4 Ref Frames

  18. Format settings, CABAC : Yes

  19. Format settings, Reference frames : 4 frames

  20. Codec ID : avc1

  21. Codec ID/Info : Advanced Video Coding

  22. Duration : 1 h 17 min

  23. Bit rate : 2 456 kb/s

  24. Width : 1 920 pixels

  25. Height : 804 pixels

  26. Display aspect ratio : 2.40:1

  27. Frame rate mode : Variable

  28. Frame rate : 24.000 FPS

  29. Minimum frame rate : 23.994 FPS

  30. Maximum frame rate : 24.006 FPS

  31. Color space : YUV

  32. Chroma subsampling : 4:2:0

  33. Bit depth : 8 bits

  34. Scan type : Progressive

  35. Bits/(Pixel*Frame) : 0.066

  36. Stream size : 1.34 GiB (96%)

  37. Color range : Limited

  38. Color primaries : BT.709

  39. Transfer characteristics : BT.709

  40. Matrix coefficients : BT.709

  41. Codec configuration box : avcC

  42. Audio

  43. ID : 2

  44. Format : AAC LC

  45. Format/Info : Advanced Audio Codec Low Complexity

  46. Codec ID : mp4a-40-2

  47. Duration : 1 h 17 min

  48. Bit rate mode : Variable

  49. Bit rate : 93.4 kb/s

  50. Maximum bit rate : 99.8 kb/s

  51. Channel(s) : 2 channels

  52. Channel layout : L R

  53. Sampling rate : 48.0 kHz

  54. Frame rate : 46.875 FPS (1024 SPF)

  55. Compression mode : Lossy

  56. Stream size : 52.0 MiB (4%)

  57. Default : Yes

  58. Alternate group : 1





文件下载


除非特别注明,本文『西行纪之穷奇地洞[国语配音/中文字幕].The.Westward.2022.1080p.WEB-DL.H264.AAC-NUMTV 1.39GB』来源于互联网机器人自动抓取,非本站原创。 浮游电影网不对本文拥有版权,如有侵犯,请联系邮箱:fuyouu#yandex.com[#换成@]投诉。我们会在15个工作日内删除。 但烦请转载时请标明出处:“本文转载于『浮游电影网』,原文地址:https://www.fuyouu.com/22782.html

评论吧骚年!

发表你的见解   

昵称*

E-mail*(建议输入,以便收到博主回复的提示邮件)

验证码*

您可以使用eMule或eMule Mod(Windows)、aMule(Win、Linux、Mac)等软件下载eD2k链接。。
eMule收藏集(.emulecollection)文件是您选中的所有链接的列表文件。eMule可以直接下载它们。
按住SHIFT键选择可以选中多个选择框。
可用文件名和大小选择器来选择文件。
文件名选择器帮您根据文件名称或后缀来选择文件。不分大小写。
符号使用:
和:空格( )、+
不包含:-
或:|
转义:一对英文引号("");
匹配开头:^
匹配结尾:$
例如:
选中所有名称中包含有“eMule”或“0.49c”字眼,但不包含有“exe”字眼的:emule|0.49c -exe
选中所有名称的开头是“eMule”,结尾是“0.49c”的:^emule 0.49c$
选中所有名称中带有“eMule 0.49c”的(必须是“eMule 0.49c”,中间没有别的字符,不能是“eMule fake 0.49c”),需要转义:"emule 0.49c"
大小选择器帮您根据文件大小选择文件。