当前位置: 首页 >> 国产电影 >> 大幻术师2[国语配音/中文字幕].The.Great.Illusionist.2.2022.2160p.WEB-DL.H265.AAC-MOMOWEB 1.40GB >> 正文

大幻术师2[国语配音/中文字幕].The.Great.Illusionist.2.2022.2160p.WEB-DL.H265.AAC-MOMOWEB 1.40GB

2022年08月21日 09:37:21     电影发布:来源于网络     电影分类:国产电影     评论(0)    

◎标 题 大幻术师2

◎译 名 The Great Illusionist 2

◎年 代 2022

◎产 地 中国大陆

◎类 别 奇幻

◎语 言 汉语普通话

◎上映日期 2022-08-20(中国大陆)

◎IMDb链接 https://www.imdb.com/title//

◎豆瓣链接 https://movie.douban.com/subject/36061311/

◎导 演 富贵 Fugui

◎演 员 钱小豪 Siu-hou Chin

孙飞翔 Silvio Sun

关翔匀 Xiangyun Guan

余俪 Li Yu

韩金明

◎简 介

民国时期,北海市发生一起离奇凶杀案,受害者徐少青因为死因奇特,当地流传他是被邪灵所杀。警探龙聪和马六在调查过程中,将目标锁定为药剂师落霞飞。突然,第二名受害者出现,暂时洗清了落霞飞的嫌疑。同时,落霞飞的表妹记者花灵也在追踪报道此案。随着凶手第三次作案,龙聪查出凶手是三名受害者的同学裴静之,龙聪与花灵在追捕裴静之的过程中,陷入了他制造的离奇幻境,最终,马六出现救下二人,裴静之畏罪自杀。而在即将结案之时,真相再起疑云,幕后真凶恐怕另有其人……

  1. ##### MediaInfo ######

  2. General

  3. Unique ID : 266607432677535886374051314249551290451 (0xC892B94AE3F238C3F2EDA79FC943A053)

  4. Complete name : The.Great.Illusionist.2.2022.2160p.WEB-DL.H265.AAC-MOMOWEB.mkv

  5. Format : Matroska

  6. Format version : Version 4

  7. File size : 1.40 GiB

  8. Duration : 1 h 26 min

  9. Overall bit rate : 2 303 kb/s

  10. Encoded date : UTC 2022-08-20 02:18:33

  11. Writing application : mkvmerge v58.0.0 ('Supper's Ready') 64-bit

  12. Writing library : libebml v1.4.2 + libmatroska v1.6.4

  13. Video

  14. ID : 1

  15. Format : HEVC

  16. Format/Info : High Efficiency Video Coding

  17. Format profile : [email protected]@Main

  18. Codec ID : V_MPEGH/ISO/HEVC

  19. Duration : 1 h 26 min

  20. Bit rate : 2 176 kb/s

  21. Width : 3 840 pixels

  22. Height : 1 440 pixels

  23. Display aspect ratio : 2.667

  24. Frame rate mode : Constant

  25. Frame rate : 25.000 FPS

  26. Color space : YUV

  27. Chroma subsampling : 4:2:0

  28. Bit depth : 8 bits

  29. Bits/(Pixel*Frame) : 0.016

  30. Stream size : 1.32 GiB (94%)

  31. Language : Chinese

  32. Default : Yes

  33. Forced : No

  34. Color range : Limited

  35. Color primaries : BT.709

  36. Transfer characteristics : BT.709

  37. Matrix coefficients : BT.709

  38. Audio

  39. ID : 2

  40. Format : AAC LC

  41. Format/Info : Advanced Audio Codec Low Complexity

  42. Codec ID : A_AAC-2

  43. Duration : 1 h 26 min

  44. Bit rate : 125 kb/s

  45. Channel(s) : 2 channels

  46. Channel layout : L R

  47. Sampling rate : 48.0 kHz

  48. Frame rate : 46.875 FPS (1024 SPF)

  49. Compression mode : Lossy

  50. Delay relative to video : -42 ms

  51. Stream size : 77.8 MiB (5%)

  52. Language : Chinese

  53. Default : Yes

  54. Forced : No



文件下载


除非特别注明,本文『大幻术师2[国语配音/中文字幕].The.Great.Illusionist.2.2022.2160p.WEB-DL.H265.AAC-MOMOWEB 1.40GB』来源于互联网机器人自动抓取,非本站原创。 浮游电影网不对本文拥有版权,如有侵犯,请联系邮箱:fuyouu#yandex.com[#换成@]投诉。我们会在15个工作日内删除。 但烦请转载时请标明出处:“本文转载于『浮游电影网』,原文地址:https://www.fuyouu.com/22781.html

评论吧骚年!

发表你的见解   

昵称*

E-mail*(建议输入,以便收到博主回复的提示邮件)

验证码*

您可以使用eMule或eMule Mod(Windows)、aMule(Win、Linux、Mac)等软件下载eD2k链接。。
eMule收藏集(.emulecollection)文件是您选中的所有链接的列表文件。eMule可以直接下载它们。
按住SHIFT键选择可以选中多个选择框。
可用文件名和大小选择器来选择文件。
文件名选择器帮您根据文件名称或后缀来选择文件。不分大小写。
符号使用:
和:空格( )、+
不包含:-
或:|
转义:一对英文引号("");
匹配开头:^
匹配结尾:$
例如:
选中所有名称中包含有“eMule”或“0.49c”字眼,但不包含有“exe”字眼的:emule|0.49c -exe
选中所有名称的开头是“eMule”,结尾是“0.49c”的:^emule 0.49c$
选中所有名称中带有“eMule 0.49c”的(必须是“eMule 0.49c”,中间没有别的字符,不能是“eMule fake 0.49c”),需要转义:"emule 0.49c"
大小选择器帮您根据文件大小选择文件。