当前位置: 首页 >> 欧美电影 >> 壮志凌云2:独行侠[韩版高码率][中文字幕].Top.Gun.Maverick.2022.1080p.WEB-DL.H264.DD5.1-BBQDDQ 7.75GB >> 正文

壮志凌云2:独行侠[韩版高码率][中文字幕].Top.Gun.Maverick.2022.1080p.WEB-DL.H264.DD5.1-BBQDDQ 7.75GB

2022年08月19日 20:09:14     电影发布:来源于网络     电影分类:欧美电影     评论(0)    

◎标 题 壮志凌云2:独行侠

◎译 名 捍卫战士:独行侠(台) / 壮志凌云独行侠 / 壮志凌云:麦德林 / 壮志凌云:独行者 / 壮志凌云:独行侠 / 壮志凌云2:马弗里克 / Top Gun 2 / Top Gun Maverick

◎片 名 Top Gun: Maverick

◎年 代 2022

◎产 地 美国 / 中国大陆

◎类 别 动作

◎语 言 英语

◎上映日期 2022-05-18(戛纳电影节) / 2022-05-27(美国)

◎IMDb评分 8.7/10 (99605人评价)

◎IMDb链接 https://www.imdb.com/title/tt1745960/

◎豆瓣链接 https://movie.douban.com/subject/6893932/

◎片 长 131分钟

◎导 演 约瑟夫·科辛斯基 Joseph Kosinski

◎编 剧 伊伦·克鲁格 Ehren Kruger

埃里克·辛格尔 Eric Singer

克里斯托弗·麦奎里 Christopher McQuarrie

贾斯丁·马科斯 Justin Marks

吉姆·卡什 Jim Cash

小杰克·埃普斯 Jack Epps Jr.

彼得·克莱格 Peter Craig

◎演 员 汤姆·克鲁斯 Tom Cruise

詹妮弗·康纳利 Jennifer Connelly

迈尔斯·特勒 Miles Teller

乔恩·哈姆 Jon Hamm

方·基默 Val Kilmer

莫妮卡.巴巴罗 Monica Barbaro

珍·路易莎·凯利 Jean Louisa Kelly

曼尼·贾希尼托 Manny Jacinto

罗伯塔·斯巴达 Roberta Sparta

艾德·哈里斯 Ed Harris

格伦·鲍威尔 Glen Powell

刘易斯·普尔曼 Lewis Pullman

雷蒙德·李 Raymond Lee

莉莲安娜·雷伊 Lyliana Wray

杰·埃利斯 Jay Ellis

杰克·皮克金 Jake Picking

蕾切尔·马卡里兰 Rachael Markarian

巴希尔·萨拉赫丁 Bashir Salahuddin

彼得·马克·肯德尔 Peter Mark Kendall

查尔斯·帕内尔 Charles Parnell

切尔西哈里斯 Chelsea Harris

丹尼·拉米雷斯 Danny Ramirez

王仲欣 Kara Wong

南希·德马尔斯 Nancy DeMars

康妮·夏普 Conny Sharp

塞尔吉奥·布里奥内斯 Sergio Briones

佩内洛普·卡普迪雅 Penelope Kapudija

马克·安东尼·考克斯 Mark Anthony Cox

莫宾·汗 Mobin Khan

托马辛·麦肯齐 Thomasin McKenzie

汤姆·克鲁斯 Tom Cruise

大卫·埃里森 David Ellison

程武 Wu Cheng

杰瑞·布鲁克海默 Jerry Bruckheimer

哈罗德·方特梅耶 Harold Faltermeyer

汉斯·季默 Hans Zimmer

克劳迪奥·米兰达 Claudio Miranda

埃迪·汉密尔顿 Eddie Hamilton

丹尼斯·查米恩 Denise Chamian

杰瑞米·欣德尔 Jeremy Hindle

珍妮·帕斯凯尔 Jan Pascale

玛琳·斯图尔特 Marlene Stewart

◎简 介

作为海军顶尖飞行员服役30多年后,皮特·米切尔(代号:“独行侠”)(汤姆·克鲁斯 饰演)决定打破体制的限制,成为一名试飞员接受更大的挑战。当他接到命令,为一项高难度特殊任务训练一群“高空利剑”项目的毕业生时,他遇到了已故的好友兼雷达截获官,代号“笨鹅”的尼克·布拉德肖中尉之子布莱德利·布拉德肖中尉(代号:“公鸡”)。

面对不确定的未来和难以释怀的心魔,独行侠必须战胜内心深处的恐惧。因此,他参与了一项需要巨大牺牲才能完成的任务。

  1. ##### MediaInfo ######

  2. General

  3. Unique ID : 235226351325437759117746663097421307054 (0xB0F6F28703C54C848228998C3AC49CAE)

  4. Complete name : Top.Gun.Maverick.2022.1080p.WEB-DL.H264.DD5.1-BBQDDQ.mkv

  5. Format : Matroska

  6. Format version : Version 4

  7. File size : 7.74 GiB

  8. Duration : 2 h 10 min

  9. Overall bit rate : 8 513 kb/s

  10. Movie name : Top Gun: Maverick (2022) KOR-SUBBED 1080p WEB-DL

  11. Encoded date : UTC 2022-08-19 07:00:15

  12. Writing application : mkvmerge v69.0.0 ('Day And Age') 64-bit

  13. Writing library : libebml v1.4.2 + libmatroska v1.6.4

  14. Video

  15. ID : 1

  16. Format : AVC

  17. Format/Info : Advanced Video Codec

  18. Format profile : [email protected]

  19. Format settings : CABAC / 2 Ref Frames

  20. Format settings, CABAC : Yes

  21. Format settings, Reference frames : 2 frames

  22. Format settings, GOP : M=1, N=30

  23. Codec ID : V_MPEG4/ISO/AVC

  24. Duration : 2 h 10 min

  25. Bit rate mode : Constant

  26. Bit rate : 8 000 kb/s

  27. Width : 1 920 pixels

  28. Height : 1 080 pixels

  29. Display aspect ratio : 16:9

  30. Frame rate mode : Constant

  31. Frame rate : 23.976 (24000/1001/53354) FPS

  32. Color space : YUV

  33. Chroma subsampling : 4:2:0

  34. Bit depth : 8 bits

  35. Scan type : Progressive

  36. Bits/(Pixel*Frame) : 0.161

  37. Stream size : 7.28 GiB (94%)

  38. Language : Korean

  39. Default : Yes

  40. Forced : No

  41. Audio #1

  42. ID : 2

  43. Format : AC-3

  44. Format/Info : Audio Coding 3

  45. Commercial name : Dolby Digital

  46. Codec ID : A_AC3

  47. Duration : 2 h 10 min

  48. Bit rate mode : Constant

  49. Bit rate : 320 kb/s

  50. Channel(s) : 6 channels

  51. Channel layout : L R C LFE Ls Rs

  52. Sampling rate : 48.0 kHz

  53. Frame rate : 31.250 FPS (1536 SPF)

  54. Compression mode : Lossy

  55. Stream size : 298 MiB (4%)

  56. Language : English

  57. Service kind : Complete Main

  58. Default : Yes

  59. Forced : No

  60. Audio #2

  61. ID : 3

  62. Format : AAC LC SBR

  63. Format/Info : Advanced Audio Codec Low Complexity with Spectral Band Replication

  64. Commercial name : HE-AAC

  65. Format settings : Implicit

  66. Codec ID : A_AAC-2

  67. Duration : 2 h 10 min

  68. Bit rate : 192 kb/s

  69. Channel(s) : 6 channels

  70. Channel layout : C L R Ls Rs LFE

  71. Sampling rate : 48.0 kHz

  72. Frame rate : 23.438 FPS (2048 SPF)

  73. Compression mode : Lossy

  74. Stream size : 179 MiB (2%)

  75. Language : English

  76. Default : No

  77. Forced : No

  78. Text

  79. ID : 4

  80. Format : ASS

  81. Codec ID : S_TEXT/ASS

  82. Codec ID/Info : Advanced Sub Station Alpha

  83. Duration : 2 h 2 min

  84. Bit rate : 90 b/s

  85. Count of elements : 1493

  86. Compression mode : Lossless

  87. Stream size : 81.0 KiB (0%)

  88. Language : Chinese

  89. Default : Yes

  90. Forced : No


复制代码



文件下载


除非特别注明,本文『壮志凌云2:独行侠[韩版高码率][中文字幕].Top.Gun.Maverick.2022.1080p.WEB-DL.H264.DD5.1-BBQDDQ 7.75GB』来源于互联网机器人自动抓取,非本站原创。 浮游电影网不对本文拥有版权,如有侵犯,请联系邮箱:fuyouu#yandex.com[#换成@]投诉。我们会在15个工作日内删除。 但烦请转载时请标明出处:“本文转载于『浮游电影网』,原文地址:https://www.fuyouu.com/22779.html

评论吧骚年!

发表你的见解   

昵称*

E-mail*(建议输入,以便收到博主回复的提示邮件)

验证码*

您可以使用eMule或eMule Mod(Windows)、aMule(Win、Linux、Mac)等软件下载eD2k链接。。
eMule收藏集(.emulecollection)文件是您选中的所有链接的列表文件。eMule可以直接下载它们。
按住SHIFT键选择可以选中多个选择框。
可用文件名和大小选择器来选择文件。
文件名选择器帮您根据文件名称或后缀来选择文件。不分大小写。
符号使用:
和:空格( )、+
不包含:-
或:|
转义:一对英文引号("");
匹配开头:^
匹配结尾:$
例如:
选中所有名称中包含有“eMule”或“0.49c”字眼,但不包含有“exe”字眼的:emule|0.49c -exe
选中所有名称的开头是“eMule”,结尾是“0.49c”的:^emule 0.49c$
选中所有名称中带有“eMule 0.49c”的(必须是“eMule 0.49c”,中间没有别的字符,不能是“eMule fake 0.49c”),需要转义:"emule 0.49c"
大小选择器帮您根据文件大小选择文件。