当前位置: 首页 >> 海外电影 >> 科拉尔金矿2[中文字幕].K.G.F.Chapter.2.2022.1080p.AMZN.WEB-DL.H264.DDP5.1-NUMTV 10.91GB >> 正文

科拉尔金矿2[中文字幕].K.G.F.Chapter.2.2022.1080p.AMZN.WEB-DL.H264.DDP5.1-NUMTV 10.91GB

2022年08月18日 21:25:02     电影发布:来源于网络     电影分类:海外电影     评论(0)    

◎标 题 科拉尔金矿2

◎译 名 黄金之城:第二章

◎片 名 K.G.F: Chapter 2

◎年 代 2022

◎产 地 印度

◎类 别 剧情 / 动作 / 惊悚 / 犯罪

◎语 言 卡纳达语 / 印地语 / 泰米尔语 / 马拉雅拉姆语 / 泰卢固语

◎上映日期 2022-04-14(印度)

◎IMDb评分 8.6/10 (103273人评价)

◎IMDb链接 https://www.imdb.com/title/tt10698680/

◎豆瓣链接 https://movie.douban.com/subject/34938553/

◎片 长 168分钟

◎导 演 普拉桑斯·尼尔 Prashanth Neel

◎编 剧 普拉桑斯·尼尔 Prashanth Neel

◎演 员 亚什 Yash

桑杰·达特 Sanjay Dutt

斯里尼迪·谢蒂 Srinidhi Shetty

米尔扎·奥韦斯·阿拉姆 Mirza Owais Alam

莱薇娜·谭登 Raveena Tandon

阿南特·纳格 Anant Nag

普拉卡什·拉贾 Prakash Raj

阿卡纳·乔伊斯 Archana Jois

拉梅什·英迪拉 Ramesh Indira

拉姆昌德拉·拉祖 Ramachandra Raju

维奈·比达帕 Vinay Bidappa

阿丘特·库马尔 Achyuth Kumar

马拉维卡·阿维纳什 Malavika Avinash

拉奥·拉梅什 Rao Ramesh

B·S·阿维纳什 B.S. Avinash

T·S·那伽巴拉纳 T.S. Nagabharana

◎简 介

在血腥的科拉尔金矿区,洛基的名字让他的敌人感到恐惧。 他的盟友仰赖于他,政府却将他视为对法律和秩序的威胁。 洛奇必须与来自四面八方的威胁作斗争,以获得无可挑战的霸主地位。

  1. ##### MediaInfo ######

  2. General

  3. Unique ID : 137886689616390767638482508846906355928 (0x67BC02AC9E9350D5B0177B02576E30D8)

  4. Complete name : 科拉尔金矿2.K.G.F.Chapter.2.2022.1080p.AMZN.WEB-DL.H264.DDP5.1-NUMTV.mkv

  5. Format : Matroska

  6. Format version : Version 4

  7. File size : 10.9 GiB

  8. Duration : 2 h 45 min

  9. Overall bit rate : 9 407 kb/s

  10. Movie name : K.G.F Chapter 2 (Telugu)

  11. Description : Vijendra Ingalgi, Son of Anand Ingalgi continues the story of KGF and Rocky in Chapter 2. Rocky survives the attack by Vanaram’s guards after killing Garuda. He is a hero and a saviour to the people of Narachi. While trying to fulfil his promise to his mother, he must face many obstacles in the form of Adheera, Inayat Khalil and Ramika sen.

  12. Writing application : Lavf58.76.100

  13. Writing library : Lavf58.76.100

  14. ErrorDetectionType : Per level 1

  15. DATE : 2022

  16. SHOW : K.G.F Chapter 2 (Telugu)

  17. Video

  18. ID : 1

  19. Format : AVC

  20. Format/Info : Advanced Video Codec

  21. Format profile : [email protected]

  22. Format settings : CABAC / 4 Ref Frames

  23. Format settings, CABAC : Yes

  24. Format settings, Reference frames : 4 frames

  25. Codec ID : V_MPEG4/ISO/AVC

  26. Duration : 2 h 45 min

  27. Bit rate : 8 580 kb/s

  28. Width : 1 920 pixels

  29. Height : 816 pixels

  30. Display aspect ratio : 2.35:1

  31. Frame rate mode : Constant

  32. Frame rate : 24.000 FPS

  33. Color space : YUV

  34. Chroma subsampling : 4:2:0

  35. Bit depth : 8 bits

  36. Scan type : Progressive

  37. Bits/(Pixel*Frame) : 0.228

  38. Stream size : 9.95 GiB (91%)

  39. Writing library : AVC Coding

  40. Default : Yes

  41. Forced : No

  42. Color range : Limited

  43. Color primaries : BT.709

  44. Transfer characteristics : BT.709

  45. Matrix coefficients : BT.709

  46. VENDOR_ID : [0][0][0][0]

  47. Audio

  48. ID : 2

  49. Format : E-AC-3

  50. Format/Info : Enhanced AC-3

  51. Commercial name : Dolby Digital Plus

  52. Codec ID : A_EAC3

  53. Duration : 2 h 45 min

  54. Bit rate mode : Constant

  55. Bit rate : 640 kb/s

  56. Channel(s) : 6 channels

  57. Channel layout : L R C LFE Ls Rs

  58. Sampling rate : 48.0 kHz

  59. Frame rate : 31.250 FPS (1536 SPF)

  60. Bit depth : 32 bits

  61. Compression mode : Lossy

  62. Stream size : 760 MiB (7%)

  63. Language : Telugu

  64. Service kind : Complete Main

  65. Default : Yes

  66. Forced : No

  67. VENDOR_ID : [0][0][0][0]

  68. Text #1

  69. ID : 3

  70. Format : UTF-8

  71. Codec ID : S_TEXT/UTF8

  72. Codec ID/Info : UTF-8 Plain Text

  73. Duration : 2 h 44 min

  74. Writing library : Lavc58.134.100 srt

  75. Language : Malay

  76. Default : Yes

  77. Forced : No

  78. Text #2

  79. ID : 4

  80. Format : UTF-8

  81. Codec ID : S_TEXT/UTF8

  82. Codec ID/Info : UTF-8 Plain Text

  83. Duration : 2 h 44 min

  84. Writing library : Lavc58.134.100 srt

  85. Language : English

  86. Default : No

  87. Forced : No

  88. Text #3

  89. ID : 5

  90. Format : UTF-8

  91. Codec ID : S_TEXT/UTF8

  92. Codec ID/Info : UTF-8 Plain Text

  93. Duration : 2 h 44 min

  94. Writing library : Lavc58.134.100 srt

  95. Language : Arabic

  96. Default : No

  97. Forced : No

  98. Text #4

  99. ID : 6

  100. Format : UTF-8

  101. Codec ID : S_TEXT/UTF8

  102. Codec ID/Info : UTF-8 Plain Text

  103. Duration : 2 h 44 min

  104. Writing library : Lavc58.134.100 srt

  105. Language : Tamil

  106. Default : No

  107. Forced : No

  108. Text #5

  109. ID : 7

  110. Format : UTF-8

  111. Codec ID : S_TEXT/UTF8

  112. Codec ID/Info : UTF-8 Plain Text

  113. Duration : 2 h 44 min

  114. Writing library : Lavc58.134.100 srt

  115. Language : Thai

  116. Default : No

  117. Forced : No

  118. Text #6

  119. ID : 8

  120. Format : UTF-8

  121. Codec ID : S_TEXT/UTF8

  122. Codec ID/Info : UTF-8 Plain Text

  123. Duration : 2 h 44 min

  124. Writing library : Lavc58.134.100 srt

  125. Language : Chinese

  126. Default : No

  127. Forced : No


复制代码



文件下载


除非特别注明,本文『科拉尔金矿2[中文字幕].K.G.F.Chapter.2.2022.1080p.AMZN.WEB-DL.H264.DDP5.1-NUMTV 10.91GB』来源于互联网机器人自动抓取,非本站原创。 浮游电影网不对本文拥有版权,如有侵犯,请联系邮箱:fuyouu#yandex.com[#换成@]投诉。我们会在15个工作日内删除。 但烦请转载时请标明出处:“本文转载于『浮游电影网』,原文地址:https://www.fuyouu.com/22777.html

评论吧骚年!

发表你的见解   

昵称*

E-mail*(建议输入,以便收到博主回复的提示邮件)

验证码*

您可以使用eMule或eMule Mod(Windows)、aMule(Win、Linux、Mac)等软件下载eD2k链接。。
eMule收藏集(.emulecollection)文件是您选中的所有链接的列表文件。eMule可以直接下载它们。
按住SHIFT键选择可以选中多个选择框。
可用文件名和大小选择器来选择文件。
文件名选择器帮您根据文件名称或后缀来选择文件。不分大小写。
符号使用:
和:空格( )、+
不包含:-
或:|
转义:一对英文引号("");
匹配开头:^
匹配结尾:$
例如:
选中所有名称中包含有“eMule”或“0.49c”字眼,但不包含有“exe”字眼的:emule|0.49c -exe
选中所有名称的开头是“eMule”,结尾是“0.49c”的:^emule 0.49c$
选中所有名称中带有“eMule 0.49c”的(必须是“eMule 0.49c”,中间没有别的字符,不能是“eMule fake 0.49c”),需要转义:"emule 0.49c"
大小选择器帮您根据文件大小选择文件。