当前位置: 首页 >> 国产电影 >> 猎毒之闪电突击[国语配音/中文字幕].The.Lightning.Strike.of.Hunting.Poison.2022.2160p.WEB-DL.H265.AAC-MOMOWEB 3.06GB >> 正文

猎毒之闪电突击[国语配音/中文字幕].The.Lightning.Strike.of.Hunting.Poison.2022.2160p.WEB-DL.H265.AAC-MOMOWEB 3.06GB

2022年08月18日 21:23:02     电影发布:来源于网络     电影分类:国产电影     评论(0)    

◎标 题 猎毒之闪电突击

◎年 代 2022

◎产 地 中国大陆

◎类 别 剧情 / 动作 / 犯罪

◎语 言 汉语普通话

◎上映日期 2022-08-17(中国大陆)

◎IMDb链接 https://www.imdb.com/title//

◎豆瓣链接 https://movie.douban.com/subject/36059654/

◎导 演 薛文华 Wenhua Xue

◎编 剧 樊大明 Daming Fan

◎演 员 吴刚 Gang Wu

王韬 Tao Wang

李辛喆 Xinzhe Li

张植绿 Zhilü Zhang

王冠淇 Guanqi Wang

李乾锋 Qianfeng Li

潘羞月 Xiuyue Pan

骆达华 Tat-Wah Lok

王飞斐 Feifei Wang

陈奕名 Yiming Chen

张鹏 Peng Zhang

◎简 介

本电影讲述疯狂教授研发新型毒品"嗨乐神",严重挑衅国家法律威严。为坚决捍卫国家和人民利益,作为中国第一支缉毒尖刀班子“闪电突击队”,通过长时间的精心布局,与贩毒团伙斗智斗勇,海陆空全方位打击毒贩,猎毒大战一触即发。

  1. ##### MediaInfo ######

  2. General

  3. Unique ID : 269547477068989391046168048374677661925 (0xCAC8F4AC2BC1D3417C88FE76351668E5)

  4. Complete name : The.Lightning.Strike.of.Hunting.Poison.2022.2160p.WEB-DL.H265.AAC-MOMOWEB.mkv

  5. Format : Matroska

  6. Format version : Version 4

  7. File size : 3.06 GiB

  8. Duration : 1 h 43 min

  9. Overall bit rate : 4 245 kb/s

  10. Encoded date : UTC 2022-08-17 02:46:31

  11. Writing application : mkvmerge v58.0.0 ('Supper's Ready') 64-bit

  12. Writing library : libebml v1.4.2 + libmatroska v1.6.4

  13. Video

  14. ID : 1

  15. Format : HEVC

  16. Format/Info : High Efficiency Video Coding

  17. Format profile : [email protected]@Main

  18. Codec ID : V_MPEGH/ISO/HEVC

  19. Duration : 1 h 43 min

  20. Bit rate : 4 118 kb/s

  21. Width : 3 840 pixels

  22. Height : 1 636 pixels

  23. Display aspect ratio : 2.35:1

  24. Frame rate mode : Constant

  25. Frame rate : 25.000 FPS

  26. Color space : YUV

  27. Chroma subsampling : 4:2:0

  28. Bit depth : 8 bits

  29. Bits/(Pixel*Frame) : 0.026

  30. Stream size : 2.96 GiB (97%)

  31. Language : Chinese

  32. Default : Yes

  33. Forced : No

  34. Color range : Limited

  35. Color primaries : BT.709

  36. Transfer characteristics : BT.709

  37. Matrix coefficients : BT.709

  38. Audio

  39. ID : 2

  40. Format : AAC LC

  41. Format/Info : Advanced Audio Codec Low Complexity

  42. Codec ID : A_AAC-2

  43. Duration : 1 h 43 min

  44. Bit rate : 125 kb/s

  45. Channel(s) : 2 channels

  46. Channel layout : L R

  47. Sampling rate : 48.0 kHz

  48. Frame rate : 46.875 FPS (1024 SPF)

  49. Compression mode : Lossy

  50. Delay relative to video : -42 ms

  51. Stream size : 92.4 MiB (3%)

  52. Language : Chinese

  53. Default : Yes

  54. Forced : No


复制代码



文件下载


除非特别注明,本文『猎毒之闪电突击[国语配音/中文字幕].The.Lightning.Strike.of.Hunting.Poison.2022.2160p.WEB-DL.H265.AAC-MOMOWEB 3.06GB』来源于互联网机器人自动抓取,非本站原创。 浮游电影网不对本文拥有版权,如有侵犯,请联系邮箱:fuyouu#yandex.com[#换成@]投诉。我们会在15个工作日内删除。 但烦请转载时请标明出处:“本文转载于『浮游电影网』,原文地址:https://www.fuyouu.com/22776.html

评论吧骚年!

发表你的见解   

昵称*

E-mail*(建议输入,以便收到博主回复的提示邮件)

验证码*

您可以使用eMule或eMule Mod(Windows)、aMule(Win、Linux、Mac)等软件下载eD2k链接。。
eMule收藏集(.emulecollection)文件是您选中的所有链接的列表文件。eMule可以直接下载它们。
按住SHIFT键选择可以选中多个选择框。
可用文件名和大小选择器来选择文件。
文件名选择器帮您根据文件名称或后缀来选择文件。不分大小写。
符号使用:
和:空格( )、+
不包含:-
或:|
转义:一对英文引号("");
匹配开头:^
匹配结尾:$
例如:
选中所有名称中包含有“eMule”或“0.49c”字眼,但不包含有“exe”字眼的:emule|0.49c -exe
选中所有名称的开头是“eMule”,结尾是“0.49c”的:^emule 0.49c$
选中所有名称中带有“eMule 0.49c”的(必须是“eMule 0.49c”,中间没有别的字符,不能是“eMule fake 0.49c”),需要转义:"emule 0.49c"
大小选择器帮您根据文件大小选择文件。