当前位置: 首页 >> 海外电影 >> 美好冤家[国语音轨].Perfect.Rivals.2011.CHINESE.ENSUBBED.1080p.WEBRip.AAC2.0.x264-tG1R0 2.53GB >> 正文

美好冤家[国语音轨].Perfect.Rivals.2011.CHINESE.ENSUBBED.1080p.WEBRip.AAC2.0.x264-tG1R0 2.53GB

2022年08月14日 23:59:58     电影发布:来源于网络     电影分类:海外电影     评论(0)    

美好冤家[国语音轨].Perfect.Rivals.2011.CHINESE.ENSUBBED.1080p.WEBRip.AAC2.0.x264 tG1R0 2.53GB  海外电影  第1张

美好冤家[国语音轨].Perfect.Rivals.2011.CHINESE.ENSUBBED.1080p.WEBRip.AAC2.0.x264 tG1R0 2.53GB  海外电影  第2张

◎译 名 美好冤家 / Perfect Rivals

◎年 代 2011

◎产 地 新加坡 / 马拉西亚

◎类 别 喜剧

◎语 言 汉语普通话 / 英语

◎上映日期 2011-03-17(新加坡)

◎IMDb链接 https://www.imdb.com/title/tt2355564/

◎豆瓣评分 4.8/10 (64人评价)

◎豆瓣链接 https://movie.douban.com/subject/6736476/

◎演 员 许仁杰 Stanly Hsu (id:1408214)

洪爱玲 Irene Ang (id:1380416)

米雪 Michelle Mee (id:1275431)

夏雨 Yu Ha (id:1315323)

◎简 介

讲述一个关于两家肉乾家族对抗,继而从中描述家人之间的爱,朋友之间的信,情侣之间的情以及冤家之间的怨,而这一切一切的关系都源自两家家长的上一代恩怨,一直纠扯到现在,而且也影响了下一代之间的趣事。

  1. Video

  2. ID : 1

  3. Format : AVC

  4. Format/Info : Advanced Video Codec

  5. Format profile : [email protected]

  6. Format settings : CABAC / 3 Ref Frames

  7. Format settings, CABAC : Yes

  8. Format settings, Reference frames : 3 frames

  9. Codec ID : V_MPEG4/ISO/AVC

  10. Duration : 1 h 28 min

  11. Bit rate : 3 945 kb/s

  12. Width : 1 920 pixels

  13. Height : 1 080 pixels

  14. Display aspect ratio : 16:9

  15. Frame rate mode : Constant

  16. Frame rate : 25.000 FPS

  17. Color space : YUV

  18. Chroma subsampling : 4:2:0

  19. Bit depth : 8 bits

  20. Scan type : Progressive

  21. Bits/(Pixel*Frame) : 0.076

  22. Stream size : 2.45 GiB (97%)

  23. Writing library : x264 core 157

  24. Encoding settings : cabac=1 / ref=4 / deblock=1:0:0 / analyse=0x3:0x111 / me=hex / subme=7 / psy=1 / psy_rd=1.00:0.00 / mixed_ref=1 / me_range=16 / chroma_me=1 / trellis=1 / 8x8dct=1 / cqm=0 / deadzone=21,11 / fast_pskip=1 / chroma_qp_offset=-2 / threads=4 / lookahead_threads=1 / sliced_threads=0 / nr=0 / decimate=1 / interlaced=0 / NTMzNTQ= / bluray_compat=0 / stitchable=1 / constrained_intra=0 / bframes=16 / b_pyramid=1 / b_adapt=1 / b_bias=0 / direct=1 / weightb=1 / open_gop=0 / weightp=2 / keyint=86400 / keyint_min=20 / NTMzNTQ=uuDQuD2mJt9fsCf / scenecut=40 / intra_refresh=0 / rc_lookahead=40 / rc=abr / mbtree=1 / bitrate=3945 / ratetol=1.0 / qcomp=0.60 / qpmin=10 / qpmax=50 / qpstep=4 / vbv_maxrate=4000 / vbv_bufsize=8000 / nal_hrd=none / filler=0 / NTMzNTQ=LmsMAP37EqsCpk / ip_ratio=1.41 / aq=1:1.00

  25. Language : Chinese

  26. Default : Yes

  27. Forced : No


  28. Audio

  29. ID : 2

  30. Format : AAC LC

  31. Format/Info : Advanced Audio Codec Low Complexity

  32. Codec ID : A_AAC-2

  33. Duration : 1 h 28 min

  34. Bit rate : 128 kb/s

  35. Channel(s) : 2 channels

  36. Channel layout : L R

  37. Sampling rate : 44.1 kHz

  38. Frame rate : 43.066 FPS (1024 SPF)

  39. Compression mode : Lossy

  40. Stream size : 81.5 MiB (3%)

  41. Language : Chinese

  42. Default : Yes

  43. Forced : No

复制代码

美好冤家[国语音轨].Perfect.Rivals.2011.CHINESE.ENSUBBED.1080p.WEBRip.AAC2.0.x264 tG1R0 2.53GB  海外电影  第3张 美好冤家[国语音轨].Perfect.Rivals.2011.CHINESE.ENSUBBED.1080p.WEBRip.AAC2.0.x264 tG1R0 2.53GB  海外电影  第4张 美好冤家[国语音轨].Perfect.Rivals.2011.CHINESE.ENSUBBED.1080p.WEBRip.AAC2.0.x264 tG1R0 2.53GB  海外电影  第5张



文件下载


除非特别注明,本文『美好冤家[国语音轨].Perfect.Rivals.2011.CHINESE.ENSUBBED.1080p.WEBRip.AAC2.0.x264-tG1R0 2.53GB』来源于互联网机器人自动抓取,非本站原创。 浮游电影网不对本文拥有版权,如有侵犯,请联系邮箱:fuyouu#yandex.com[#换成@]投诉。我们会在15个工作日内删除。 但烦请转载时请标明出处:“本文转载于『浮游电影网』,原文地址:https://www.fuyouu.com/22773.html

评论吧骚年!

发表你的见解   

昵称*

E-mail*(建议输入,以便收到博主回复的提示邮件)

验证码*

您可以使用eMule或eMule Mod(Windows)、aMule(Win、Linux、Mac)等软件下载eD2k链接。。
eMule收藏集(.emulecollection)文件是您选中的所有链接的列表文件。eMule可以直接下载它们。
按住SHIFT键选择可以选中多个选择框。
可用文件名和大小选择器来选择文件。
文件名选择器帮您根据文件名称或后缀来选择文件。不分大小写。
符号使用:
和:空格( )、+
不包含:-
或:|
转义:一对英文引号("");
匹配开头:^
匹配结尾:$
例如:
选中所有名称中包含有“eMule”或“0.49c”字眼,但不包含有“exe”字眼的:emule|0.49c -exe
选中所有名称的开头是“eMule”,结尾是“0.49c”的:^emule 0.49c$
选中所有名称中带有“eMule 0.49c”的(必须是“eMule 0.49c”,中间没有别的字符,不能是“eMule fake 0.49c”),需要转义:"emule 0.49c"
大小选择器帮您根据文件大小选择文件。