当前位置: 首页 >> 海外电影 >> 一次邂逅[中文字幕].A.Chance.Encounter.2014.FRENCH.1080p.BluRay.x264.DDP5.1-PTer 11.85GB >> 正文

一次邂逅[中文字幕].A.Chance.Encounter.2014.FRENCH.1080p.BluRay.x264.DDP5.1-PTer 11.85GB

2022年08月14日 23:56:37     电影发布:来源于网络     电影分类:海外电影     评论(0)    

一次邂逅[中文字幕].A.Chance.Encounter.2014.FRENCH.1080p.BluRay.x264.DDP5.1 PTer 11.85GB  海外电影  第1张

一次邂逅[中文字幕].A.Chance.Encounter.2014.FRENCH.1080p.BluRay.x264.DDP5.1 PTer 11.85GB  海外电影  第2张

◎译 名 一次邂逅 / 爱在法国巧遇时(台) / 某种相遇 / 邂遇 / 偶遇 / 量子之恋 / Quantum Love

◎片 名 Une rencontre

◎年 代 2014

◎产 地 法国

◎类 别 剧情 / 爱情

◎语 言 法语 / 英语

◎上映日期 2014-04-23(法国)

◎IMDb链接 https://www.imdb.com/title/tt2760634/

◎豆瓣评分 7.4/10 (5578人评价)

◎豆瓣链接 https://movie.douban.com/subject/25662977/

◎片 长 81分钟

◎导 演 丽萨·阿祖洛斯 Lisa Azuelos (id:1041369)

◎编 剧 丽萨·阿祖洛斯 Lisa Azuelos (id:1041369)

◎演 员 苏菲·玛索 Sophie Marceau (id:1040543)

弗朗索瓦·克鲁塞 Fran?ois Cluzet (id:1050210)

丽萨·阿祖洛斯 Lisa Azuelos (id:1041369)

亚历山德拉·阿斯提耶尔 Alexandre Astier (id:1176761)

亚瑟·邦扎康 Arthur Benzaquen (id:1345487)

乔纳森·科恩 Jonathan Cohen (id:1332591)

尼尔斯·施内德 Niels Schneider (id:1314060)

斯蒂芬妮·穆拉特 Stéphanie Murat (id:1345488)

奥利维亚·科特 Olivia C?te (id:1345489)

赛勒斯·萨赫迪 Syrus Shahidi (id:1345490)

莉莉·塔耶布 Lily Taieb (id:1345491)

朱尔·本谢特里 Jules Benchetrit (id:1345492)

斯图尔特·马修斯 Stuart Matthews (id:1332710)

◎简 介

皮埃尔(弗朗索瓦·克鲁塞 Fran?ois Cluzet 饰)和安妮(丽萨·阿祖洛斯 Lisa Azuelos 饰)结婚多年,共同养育了两个孩子,感情一直十分亲密要好。皮埃尔自认为是一位称职的丈夫,一位负责人的父亲,能够拥有现在平静如水的生活,他十分满足,亦觉得无比幸运。

某一日,皮埃尔结识了名叫艾尔莎(苏菲·玛索 Sophie Marceau 饰)的女子,艾尔莎身上独特的魅力渐渐吸引了皮埃尔,皮埃尔感到,自己内心里的某些东西复苏了。然而,皮埃尔并没有因此想要离开妻子,可是,他亦无法忽视内心的悸动,让他感到吃惊的是,艾尔莎对自己也有着同样的感觉,两个坦诚的成年人越走越近,终于越过了伦理道德的界限。

  1. Video

  2. ID : 1

  3. Format : AVC

  4. Format/Info : Advanced Video Codec

  5. Format profile : [email protected]

  6. Format settings : CABAC / 4 Ref Frames

  7. Format settings, CABAC : Yes

  8. Format settings, Reference frames : 4 frames

  9. Codec ID : V_MPEG4/ISO/AVC

  10. Duration : 1 h 21 min

  11. Bit rate : 19.8 Mb/s

  12. Width : 1 920 pixels

  13. Height : 804 pixels

  14. Display aspect ratio : 2.40:1

  15. Frame rate mode : Constant

  16. Frame rate : 24.000 FPS

  17. Color space : YUV

  18. Chroma subsampling : 4:2:0

  19. Bit depth : 8 bits

  20. Scan type : Progressive

  21. Bits/(Pixel*Frame) : 0.534

  22. Stream size : 11.3 GiB (95%)

  23. Writing library : x264 core 158 r2984+47 456d10a t_mod_New [[email protected] X86_64]

  24. Encoding settings : cabac=1 / ref=3 / deblock=1:-3:-3 / analyse=0x3:0x113 / me=umh / subme=11 / psy=1 / fade_compensate=0.00 / psy_rd=1.05:0.00 / mixed_ref=1 / me_range=32 / chroma_me=1 / trellis=2 / 8x8dct=1 / cqm=0 / deadzone=21,11 / fast_pskip=0 / chroma_qp_offset=-2 / threads=12 / lookahead_threads=2 / sliced_threads=0 / nr=0 / decimate=0 / interlaced=0 / NTMzNTQ= / bluray_compat=0 / constrained_intra=0 / fgo=0 / bframes=9 / b_pyramid=2 / b_adapt=2 / b_bias=0 / direct=3 / weightb=1 / open_gop=0 / weightp=2 / keyint=250 / keyint_min=24 / NTMzNTQ=uuDQuD2mJt9fsCf / scenecut=40 / intra_refresh=0 / rc_lookahead=100 / rc=crf / mbtree=0 / crf=15.4000 / qcomp=0.60 / qpmin=0:0:0 / qpmax=69:69:69 / qpstep=4 / vbv_maxrate=62500 / vbv_bufsize=78125 / crf_max=0.0 / nal_hrd=none / filler=0 / NTMzNTQ=LmsMAP37EqsCpk / ip_ratio=1.30 / pb_ratio=1.20 / aq=3:0.90 / aq-sensitivity=10.00 / aq-factor=1.00:1.00:1.00 / aq2=0 / aq3=0

  25. Language : French

  26. Default : Yes

  27. Forced : No

  28. Color range : Limited

  29. Color primaries : BT.709

  30. Matrix coefficients : BT.709


  31. Audio

  32. ID : 2

  33. Format : E-AC-3

  34. Format/Info : Enhanced AC-3

  35. Commercial name : Dolby Digital Plus

  36. Codec ID : A_EAC3

  37. Duration : 1 h 21 min

  38. Bit rate mode : Constant

  39. Bit rate : 1 023 kb/s

  40. Channel(s) : 6 channels

  41. Channel layout : L R C LFE Ls Rs

  42. Sampling rate : 48.0 kHz

  43. Frame rate : 93.750 FPS (512 SPF)

  44. Compression mode : Lossy

  45. Stream size : 596 MiB (5%)

  46. Language : French

  47. Service kind : Complete Main

  48. Default : Yes

  49. Forced : No


  50. Text #1

  51. ID : 3

  52. Format : UTF-8

  53. Codec ID : S_TEXT/UTF8

  54. Codec ID/Info : UTF-8 Plain Text

  55. Duration : 1 h 20 min

  56. Bit rate : 47 b/s

  57. Frame rate : 0.223 FPS

  58. Count of elements : 1076

  59. Stream size : 27.8 KiB (0%)

  60. Title : Forced

  61. Language : English

  62. Default : Yes

  63. Forced : Yes


  64. Text #2

  65. ID : 4

  66. Format : UTF-8

  67. Codec ID : S_TEXT/UTF8

  68. Codec ID/Info : UTF-8 Plain Text

  69. Duration : 1 h 15 min

  70. Bit rate : 58 b/s

  71. Frame rate : 0.233 FPS

  72. Count of elements : 1050

  73. Stream size : 32.4 KiB (0%)

  74. Language : Romanian

  75. Default : No

  76. Forced : No


  77. Text #3

  78. ID : 5

  79. Format : UTF-8

  80. Codec ID : S_TEXT/UTF8

  81. Codec ID/Info : UTF-8 Plain Text

  82. Duration : 1 h 14 min

  83. Bit rate : 70 b/s

  84. Frame rate : 0.313 FPS

  85. Count of elements : 1405

  86. Stream size : 38.5 KiB (0%)

  87. Title : Simplified

  88. Language : Chinese

  89. Default : No

  90. Forced : No


  91. Text #4

  92. ID : 6

  93. Format : UTF-8

  94. Codec ID : S_TEXT/UTF8

  95. Codec ID/Info : UTF-8 Plain Text

  96. Duration : 1 h 14 min

  97. Bit rate : 70 b/s

  98. Frame rate : 0.313 FPS

  99. Count of elements : 1405

  100. Stream size : 38.5 KiB (0%)

  101. Title : Traditional

  102. Language : Chinese

  103. Default : No

  104. Forced : No


  105. Text #5

  106. ID : 7

  107. Format : UTF-8

  108. Codec ID : S_TEXT/UTF8

  109. Codec ID/Info : UTF-8 Plain Text

  110. Duration : 1 h 15 min

  111. Bit rate : 52 b/s

  112. Frame rate : 0.188 FPS

  113. Count of elements : 847

  114. Stream size : 29.1 KiB (0%)

  115. Language : Hungarian

  116. Default : No

  117. Forced : No


  118. Text #6

  119. ID : 8

  120. Format : UTF-8

  121. Codec ID : S_TEXT/UTF8

  122. Codec ID/Info : UTF-8 Plain Text

  123. Duration : 15 min 50 s

  124. Bit rate : 11 b/s

  125. Frame rate : 0.064 FPS

  126. Count of elements : 61

  127. Stream size : 1.37 KiB (0%)

  128. Title : Forced

  129. Language : French

  130. Default : No

  131. Forced : No


  132. Text #7

  133. ID : 9

  134. Format : UTF-8

  135. Codec ID : S_TEXT/UTF8

  136. Codec ID/Info : UTF-8 Plain Text

  137. Duration : 1 h 20 min

  138. Bit rate : 52 b/s

  139. Frame rate : 0.203 FPS

  140. Count of elements : 979

  141. Stream size : 30.7 KiB (0%)

  142. Title : SDH

  143. Language : French

  144. Default : No

  145. Forced : No


  146. Text #8

  147. ID : 10

  148. Format : UTF-8

  149. Codec ID : S_TEXT/UTF8

  150. Codec ID/Info : UTF-8 Plain Text

  151. Duration : 1 h 20 min

  152. Bit rate : 51 b/s

  153. Frame rate : 0.201 FPS

  154. Count of elements : 968

  155. Stream size : 30.5 KiB (0%)

  156. Language : French

  157. Default : No

  158. Forced : No


  159. Text #9

  160. ID : 11

  161. Format : UTF-8

  162. Codec ID : S_TEXT/UTF8

  163. Codec ID/Info : UTF-8 Plain Text

  164. Duration : 1 h 15 min

  165. Bit rate : 59 b/s

  166. Frame rate : 0.246 FPS

  167. Count of elements : 1110

  168. Stream size : 32.8 KiB (0%)

  169. Language : Spanish

  170. Default : No

  171. Forced : No


  172. Text #10

  173. ID : 12

  174. Format : PGS

  175. Muxing mode : zlib

  176. Codec ID : S_HDMV/PGS

  177. Codec ID/Info : Picture based subtitle format used on BDs/HD-DVDs

  178. Duration : 1 h 21 min

  179. Bit rate : 24.7 kb/s

  180. Frame rate : 0.416 FPS

  181. Count of elements : 2030

  182. Stream size : 14.4 MiB (0%)

  183. Title : SUP

  184. Language : French

  185. Default : No

  186. Forced : No


  187. Menu

  188. 00:00:00.000 : en:Chapter 1

  189. 00:04:29.167 : en:Chapter 2

  190. 00:09:35.958 : en:Chapter 3

  191. 00:18:05.250 : en:Chapter 4

  192. 00:21:21.583 : en:Chapter 5

  193. 00:25:02.292 : en:Chapter 6

  194. 00:32:27.125 : en:Chapter 7

  195. 00:40:10.458 : en:Chapter 8

  196. 00:49:19.083 : en:Chapter 9

  197. 00:57:24.667 : en:Chapter 10

  198. 01:08:58.833 : en:Chapter 11

  199. 01:15:55.583 : en:Chapter 12

复制代码

一次邂逅[中文字幕].A.Chance.Encounter.2014.FRENCH.1080p.BluRay.x264.DDP5.1 PTer 11.85GB  海外电影  第3张 一次邂逅[中文字幕].A.Chance.Encounter.2014.FRENCH.1080p.BluRay.x264.DDP5.1 PTer 11.85GB  海外电影  第4张 一次邂逅[中文字幕].A.Chance.Encounter.2014.FRENCH.1080p.BluRay.x264.DDP5.1 PTer 11.85GB  海外电影  第5张



文件下载


除非特别注明,本文『一次邂逅[中文字幕].A.Chance.Encounter.2014.FRENCH.1080p.BluRay.x264.DDP5.1-PTer 11.85GB』来源于互联网机器人自动抓取,非本站原创。 浮游电影网不对本文拥有版权,如有侵犯,请联系邮箱:fuyouu#yandex.com[#换成@]投诉。我们会在15个工作日内删除。 但烦请转载时请标明出处:“本文转载于『浮游电影网』,原文地址:https://www.fuyouu.com/22772.html

评论吧骚年!

发表你的见解   

昵称*

E-mail*(建议输入,以便收到博主回复的提示邮件)

验证码*

您可以使用eMule或eMule Mod(Windows)、aMule(Win、Linux、Mac)等软件下载eD2k链接。。
eMule收藏集(.emulecollection)文件是您选中的所有链接的列表文件。eMule可以直接下载它们。
按住SHIFT键选择可以选中多个选择框。
可用文件名和大小选择器来选择文件。
文件名选择器帮您根据文件名称或后缀来选择文件。不分大小写。
符号使用:
和:空格( )、+
不包含:-
或:|
转义:一对英文引号("");
匹配开头:^
匹配结尾:$
例如:
选中所有名称中包含有“eMule”或“0.49c”字眼,但不包含有“exe”字眼的:emule|0.49c -exe
选中所有名称的开头是“eMule”,结尾是“0.49c”的:^emule 0.49c$
选中所有名称中带有“eMule 0.49c”的(必须是“eMule 0.49c”,中间没有别的字符,不能是“eMule fake 0.49c”),需要转义:"emule 0.49c"
大小选择器帮您根据文件大小选择文件。