当前位置: 首页 >> 动画电影 >> 露西的学校[中文字幕].Snoopy.Presents.Lucys.School.2022.2160p.ATVP.WEB-DL.x265.10bit.SDR.DDP5.1.Atmos-SALT 4.3 >> 正文

露西的学校[中文字幕].Snoopy.Presents.Lucys.School.2022.2160p.ATVP.WEB-DL.x265.10bit.SDR.DDP5.1.Atmos-SALT 4.3

2022年08月13日 08:47:29     电影发布:来源于网络     电影分类:动画电影     评论(0)    

露西的学校[中文字幕].Snoopy.Presents.Lucys.School.2022.2160p.ATVP.WEB DL.x265.10bit.SDR.DDP5.1.Atmos SALT 4.3  动画电影  第1张

露西的学校[中文字幕].Snoopy.Presents.Lucys.School.2022.2160p.ATVP.WEB DL.x265.10bit.SDR.DDP5.1.Atmos SALT 4.3  动画电影  第2张

◎译 名 露西的学校 / Snoopy Presents: Lucy's School

◎片 名 Lucy's School

◎年 代 2022

◎产 地 美国

◎类 别 喜剧 / 动画

◎语 言 英语

◎上映日期 2022-08-12(美国网络)

◎IMDb链接 https://www.imdb.com/title/tt21405896/

◎豆瓣链接 https://movie.douban.com/subject/36032758/

◎导 演 雷蒙德·S·佩尔西 Raymond S. Persi (id:1355373)

◎编 剧 布莱恩·舒尔茨 Bryan Schulz (id:1352124)

克莱格·舒尔茨 Craig Schulz (id:1352123)

科尼利厄斯·乌里亚诺 Cornelius Uliano (id:1239511)

◎演 员 海蒂·克拉格滕 Hattie Kragten (id:1427974)

罗伯特·丁克勒 Robert Tinkler (id:1151578)

雅各布·索利 Jacob Soley (id:1381751)

特里·迈古林 Terry McGurrin (id:1179329)

◎简 介

When summer ends, the classroom fun begins. Start the school year with the Peanuts gang when Lucy' sSchool premieres August 12 on Apple TV+.

  1. Video

  2. ID : 1

  3. Format : HEVC

  4. Format/Info : High Efficiency Video Coding

  5. Format profile : Main [email protected]@High

  6. Codec ID : V_MPEGH/ISO/HEVC

  7. Duration : 38 min 9 s

  8. Bit rate : 15.6 Mb/s

  9. Width : 3 840 pixels

  10. Height : 1 920 pixels

  11. Display aspect ratio : 2.000

  12. Frame rate mode : Constant

  13. Frame rate : 23.976 FPS

  14. Color space : YUV

  15. Chroma subsampling : 4:2:0

  16. Bit depth : 10 bits

  17. Bits/(Pixel*Frame) : 0.088

  18. Stream size : 4.16 GiB (95%)

  19. Language : English

  20. Default : Yes

  21. Forced : No

  22. Color range : Limited

  23. Color primaries : BT.709

  24. Transfer characteristics : BT.709

  25. Matrix coefficients : BT.709


  26. Audio

  27. ID : 2

  28. Format : E-AC-3 JOC

  29. Format/Info : Enhanced AC-3 with Joint Object Coding

  30. Commercial name : Dolby Digital Plus with Dolby Atmos

  31. Codec ID : A_EAC3

  32. Duration : 38 min 9 s

  33. Bit rate mode : Constant

  34. Bit rate : 768 kb/s

  35. Channel(s) : 6 channels

  36. Channel layout : L R C LFE Ls Rs

  37. Sampling rate : 48.0 kHz

  38. Frame rate : 31.250 FPS (1536 SPF)

  39. Compression mode : Lossy

  40. Stream size : 210 MiB (5%)

  41. Language : English

  42. Service kind : Complete Main

  43. Default : Yes

  44. Forced : No

  45. Complexity index : 16

  46. Number of dynamic objects : 15

  47. Bed channel count : 1 channel

  48. Bed channel configuration : LFE


  49. Text #1

  50. ID : 3

  51. Format : UTF-8

  52. Codec ID : S_TEXT/UTF8

  53. Codec ID/Info : UTF-8 Plain Text

  54. Duration : 35 min 34 s

  55. Bit rate : 59 b/s

  56. Frame rate : 0.198 FPS

  57. Count of elements : 422

  58. Stream size : 15.5 KiB (0%)

  59. Title : English

  60. Language : English

  61. Default : No

  62. Forced : No


  63. Text #2

  64. ID : 4

  65. Format : UTF-8

  66. Codec ID : S_TEXT/UTF8

  67. Codec ID/Info : UTF-8 Plain Text

  68. Duration : 36 min 13 s

  69. Bit rate : 68 b/s

  70. Frame rate : 0.254 FPS

  71. Count of elements : 551

  72. Stream size : 18.2 KiB (0%)

  73. Title : English (SDH)

  74. Language : English

  75. Default : No

  76. Forced : No


  77. Text #3

  78. ID : 5

  79. Format : UTF-8

  80. Codec ID : S_TEXT/UTF8

  81. Codec ID/Info : UTF-8 Plain Text

  82. Duration : 36 min 12 s

  83. Bit rate : 87 b/s

  84. Frame rate : 0.261 FPS

  85. Count of elements : 568

  86. Stream size : 23.1 KiB (0%)

  87. Title : English (CC)

  88. Language : English

  89. Default : No

  90. Forced : No


  91. Text #4

  92. ID : 6

  93. Format : UTF-8

  94. Codec ID : S_TEXT/UTF8

  95. Codec ID/Info : UTF-8 Plain Text

  96. Duration : 37 min 29 s

  97. Bit rate : 82 b/s

  98. Frame rate : 0.194 FPS

  99. Count of elements : 436

  100. Stream size : 22.5 KiB (0%)

  101. Title : ???????

  102. Language : Arabic

  103. Default : No

  104. Forced : No


  105. Text #5

  106. ID : 7

  107. Format : UTF-8

  108. Codec ID : S_TEXT/UTF8

  109. Codec ID/Info : UTF-8 Plain Text

  110. Duration : 37 min 29 s

  111. Bit rate : 86 b/s

  112. Frame rate : 0.186 FPS

  113. Count of elements : 419

  114. Stream size : 23.7 KiB (0%)

  115. Title : български

  116. Language : Bulgarian

  117. Default : No

  118. Forced : No


  119. Text #6

  120. ID : 8

  121. Format : UTF-8

  122. Codec ID : S_TEXT/UTF8

  123. Codec ID/Info : UTF-8 Plain Text

  124. Duration : 37 min 29 s

  125. Bit rate : 50 b/s

  126. Frame rate : 0.184 FPS

  127. Count of elements : 414

  128. Stream size : 13.9 KiB (0%)

  129. Title : ?e?tina

  130. Language : Czech

  131. Default : No

  132. Forced : No


  133. Text #7

  134. ID : 9

  135. Format : UTF-8

  136. Codec ID : S_TEXT/UTF8

  137. Codec ID/Info : UTF-8 Plain Text

  138. Duration : 37 min 29 s

  139. Bit rate : 56 b/s

  140. Frame rate : 0.167 FPS

  141. Count of elements : 376

  142. Stream size : 15.6 KiB (0%)

  143. Title : dansk

  144. Language : Danish

  145. Default : No

  146. Forced : No


  147. Text #8

  148. ID : 10

  149. Format : UTF-8

  150. Codec ID : S_TEXT/UTF8

  151. Codec ID/Info : UTF-8 Plain Text

  152. Duration : 37 min 29 s

  153. Bit rate : 63 b/s

  154. Frame rate : 0.189 FPS

  155. Count of elements : 426

  156. Stream size : 17.4 KiB (0%)

  157. Title : Deutsch

  158. Language : German

  159. Default : No

  160. Forced : No


  161. Text #9

  162. ID : 11

  163. Format : UTF-8

  164. Codec ID : S_TEXT/UTF8

  165. Codec ID/Info : UTF-8 Plain Text

  166. Duration : 37 min 29 s

  167. Bit rate : 89 b/s

  168. Frame rate : 0.184 FPS

  169. Count of elements : 415

  170. Stream size : 24.7 KiB (0%)

  171. Title : Ελληνικ?

  172. Language : Greek

  173. Default : No

  174. Forced : No


  175. Text #10

  176. ID : 12

  177. Format : UTF-8

  178. Codec ID : S_TEXT/UTF8

  179. Codec ID/Info : UTF-8 Plain Text

  180. Duration : 37 min 29 s

  181. Bit rate : 58 b/s

  182. Frame rate : 0.192 FPS

  183. Count of elements : 431

  184. Stream size : 16.2 KiB (0%)

  185. Title : Espa?ol (Latinoamérica)

  186. Language : Spanish

  187. Default : No

  188. Forced : No


  189. Text #11

  190. ID : 13

  191. Format : UTF-8

  192. Codec ID : S_TEXT/UTF8

  193. Codec ID/Info : UTF-8 Plain Text

  194. Duration : 37 min 29 s

  195. Bit rate : 57 b/s

  196. Frame rate : 0.192 FPS

  197. Count of elements : 432

  198. Stream size : 15.9 KiB (0%)

  199. Title : Espa?ol (Espa?a)

  200. Language : Spanish

  201. Default : No

  202. Forced : No


  203. Text #12

  204. ID : 14

  205. Format : UTF-8

  206. Codec ID : S_TEXT/UTF8

  207. Codec ID/Info : UTF-8 Plain Text

  208. Duration : 37 min 29 s

  209. Bit rate : 50 b/s

  210. Frame rate : 0.179 FPS

  211. Count of elements : 403

  212. Stream size : 13.7 KiB (0%)

  213. Title : eesti

  214. Language : Estonian

  215. Default : No

  216. Forced : No


  217. Text #13

  218. ID : 15

  219. Format : UTF-8

  220. Codec ID : S_TEXT/UTF8

  221. Codec ID/Info : UTF-8 Plain Text

  222. Duration : 37 min 29 s

  223. Bit rate : 53 b/s

  224. Frame rate : 0.189 FPS

  225. Count of elements : 426

  226. Stream size : 14.6 KiB (0%)

  227. Title : Suomi

  228. Language : Finnish

  229. Default : No

  230. Forced : No


  231. Text #14

  232. ID : 16

  233. Format : UTF-8

  234. Codec ID : S_TEXT/UTF8

  235. Codec ID/Info : UTF-8 Plain Text

  236. Duration : 37 min 29 s

  237. Bit rate : 56 b/s

  238. Frame rate : 0.213 FPS

  239. Count of elements : 479

  240. Stream size : 15.6 KiB (0%)

  241. Title : Fran?ais (France)

  242. Language : French

  243. Default : No

  244. Forced : No


  245. Text #15

  246. ID : 17

  247. Format : UTF-8

  248. Codec ID : S_TEXT/UTF8

  249. Codec ID/Info : UTF-8 Plain Text

  250. Duration : 37 min 29 s

  251. Bit rate : 56 b/s

  252. Frame rate : 0.213 FPS

  253. Count of elements : 479

  254. Stream size : 15.6 KiB (0%)

  255. Title : Fran?ais (Canada)

  256. Language : French

  257. Default : No

  258. Forced : No


  259. Text #16

  260. ID : 18

  261. Format : UTF-8

  262. Codec ID : S_TEXT/UTF8

  263. Codec ID/Info : UTF-8 Plain Text

  264. Duration : 37 min 29 s

  265. Bit rate : 75 b/s

  266. Frame rate : 0.194 FPS

  267. Count of elements : 436

  268. Stream size : 20.7 KiB (0%)

  269. Title : ?????

  270. Language : Hebrew

  271. Default : No

  272. Forced : No


  273. Text #17

  274. ID : 19

  275. Format : UTF-8

  276. Codec ID : S_TEXT/UTF8

  277. Codec ID/Info : UTF-8 Plain Text

  278. Duration : 37 min 29 s

  279. Bit rate : 154 b/s

  280. Frame rate : 0.195 FPS

  281. Count of elements : 438

  282. Stream size : 42.4 KiB (0%)

  283. Title : ??????

  284. Language : Hindi

  285. Default : No

  286. Forced : No


  287. Text #18

  288. ID : 20

  289. Format : UTF-8

  290. Codec ID : S_TEXT/UTF8

  291. Codec ID/Info : UTF-8 Plain Text

  292. Duration : 37 min 29 s

  293. Bit rate : 58 b/s

  294. Frame rate : 0.194 FPS

  295. Count of elements : 436

  296. Stream size : 16.2 KiB (0%)

  297. Title : magyar

  298. Language : Hungarian

  299. Default : No

  300. Forced : No


  301. Text #19

  302. ID : 21

  303. Format : UTF-8

  304. Codec ID : S_TEXT/UTF8

  305. Codec ID/Info : UTF-8 Plain Text

  306. Duration : 37 min 29 s

  307. Bit rate : 57 b/s

  308. Frame rate : 0.193 FPS

  309. Count of elements : 434

  310. Stream size : 15.7 KiB (0%)

  311. Title : Bahasa Indonesia

  312. Language : Indonesian

  313. Default : No

  314. Forced : No


  315. Text #20

  316. ID : 22

  317. Format : UTF-8

  318. Codec ID : S_TEXT/UTF8

  319. Codec ID/Info : UTF-8 Plain Text

  320. Duration : 37 min 29 s

  321. Bit rate : 61 b/s

  322. Frame rate : 0.195 FPS

  323. Count of elements : 438

  324. Stream size : 16.9 KiB (0%)

  325. Title : Italiano

  326. Language : Italian

  327. Default : No

  328. Forced : No


  329. Text #21

  330. ID : 23

  331. Format : UTF-8

  332. Codec ID : S_TEXT/UTF8

  333. Codec ID/Info : UTF-8 Plain Text

  334. Duration : 37 min 29 s

  335. Bit rate : 55 b/s

  336. Frame rate : 0.197 FPS

  337. Count of elements : 444

  338. Stream size : 15.3 KiB (0%)

  339. Title : 日本

  340. Language : Japanese

  341. Default : No

  342. Forced : No


  343. Text #22

  344. ID : 24

  345. Format : UTF-8

  346. Codec ID : S_TEXT/UTF8

  347. Codec ID/Info : UTF-8 Plain Text

  348. Duration : 37 min 29 s

  349. Bit rate : 60 b/s

  350. Frame rate : 0.195 FPS

  351. Count of elements : 438

  352. Stream size : 16.5 KiB (0%)

  353. Title : ???

  354. Language : Korean

  355. Default : No

  356. Forced : No


  357. Text #23

  358. ID : 25

  359. Format : UTF-8

  360. Codec ID : S_TEXT/UTF8

  361. Codec ID/Info : UTF-8 Plain Text

  362. Duration : 37 min 29 s

  363. Bit rate : 52 b/s

  364. Frame rate : 0.188 FPS

  365. Count of elements : 423

  366. Stream size : 14.3 KiB (0%)

  367. Title : lietuvi?

  368. Language : Lithuanian

  369. Default : No

  370. Forced : No


  371. Text #24

  372. ID : 26

  373. Format : UTF-8

  374. Codec ID : S_TEXT/UTF8

  375. Codec ID/Info : UTF-8 Plain Text

  376. Duration : 37 min 29 s

  377. Bit rate : 57 b/s

  378. Frame rate : 0.187 FPS

  379. Count of elements : 421

  380. Stream size : 15.7 KiB (0%)

  381. Title : latvie?u

  382. Language : Latvian

  383. Default : No

  384. Forced : No


  385. Text #25

  386. ID : 27

  387. Format : UTF-8

  388. Codec ID : S_TEXT/UTF8

  389. Codec ID/Info : UTF-8 Plain Text

  390. Duration : 37 min 29 s

  391. Bit rate : 55 b/s

  392. Frame rate : 0.194 FPS

  393. Count of elements : 436

  394. Stream size : 15.1 KiB (0%)

  395. Title : Bahasa Melayu

  396. Language : Malay

  397. Default : No

  398. Forced : No


  399. Text #26

  400. ID : 28

  401. Format : UTF-8

  402. Codec ID : S_TEXT/UTF8

  403. Codec ID/Info : UTF-8 Plain Text

  404. Duration : 37 min 29 s

  405. Bit rate : 54 b/s

  406. Frame rate : 0.160 FPS

  407. Count of elements : 361

  408. Stream size : 15.0 KiB (0%)

  409. Title : Nederlands

  410. Language : Dutch

  411. Default : No

  412. Forced : No


  413. Text #27

  414. ID : 29

  415. Format : UTF-8

  416. Codec ID : S_TEXT/UTF8

  417. Codec ID/Info : UTF-8 Plain Text

  418. Duration : 37 min 29 s

  419. Bit rate : 57 b/s

  420. Frame rate : 0.177 FPS

  421. Count of elements : 399

  422. Stream size : 15.8 KiB (0%)

  423. Title : Nederlands (Belgi?)

  424. Language : Dutch

  425. Default : No

  426. Forced : No


  427. Text #28

  428. ID : 30

  429. Format : UTF-8

  430. Codec ID : S_TEXT/UTF8

  431. Codec ID/Info : UTF-8 Plain Text

  432. Duration : 37 min 29 s

  433. Bit rate : 55 b/s

  434. Frame rate : 0.164 FPS

  435. Count of elements : 369

  436. Stream size : 15.2 KiB (0%)

  437. Title : norsk

  438. Language : Norwegian

  439. Default : No

  440. Forced : No


  441. Text #29

  442. ID : 31

  443. Format : UTF-8

  444. Codec ID : S_TEXT/UTF8

  445. Codec ID/Info : UTF-8 Plain Text

  446. Duration : 37 min 29 s

  447. Bit rate : 55 b/s

  448. Frame rate : 0.191 FPS

  449. Count of elements : 429

  450. Stream size : 15.2 KiB (0%)

  451. Title : polski

  452. Language : Polish

  453. Default : No

  454. Forced : No


  455. Text #30

  456. ID : 32

  457. Format : UTF-8

  458. Codec ID : S_TEXT/UTF8

  459. Codec ID/Info : UTF-8 Plain Text

  460. Duration : 37 min 29 s

  461. Bit rate : 56 b/s

  462. Frame rate : 0.193 FPS

  463. Count of elements : 435

  464. Stream size : 15.6 KiB (0%)

  465. Title : Português (Brasil)

  466. Language : Portuguese

  467. Default : No

  468. Forced : No


  469. Text #31

  470. ID : 33

  471. Format : UTF-8

  472. Codec ID : S_TEXT/UTF8

  473. Codec ID/Info : UTF-8 Plain Text

  474. Duration : 37 min 29 s

  475. Bit rate : 56 b/s

  476. Frame rate : 0.186 FPS

  477. Count of elements : 419

  478. Stream size : 15.4 KiB (0%)

  479. Title : Português

  480. Language : Portuguese

  481. Default : No

  482. Forced : No


  483. Text #32

  484. ID : 34

  485. Format : UTF-8

  486. Codec ID : S_TEXT/UTF8

  487. Codec ID/Info : UTF-8 Plain Text

  488. Duration : 37 min 29 s

  489. Bit rate : 96 b/s

  490. Frame rate : 0.195 FPS

  491. Count of elements : 438

  492. Stream size : 26.5 KiB (0%)

  493. Title : Русский

  494. Language : Russian

  495. Default : No

  496. Forced : No


  497. Text #33

  498. ID : 35

  499. Format : UTF-8

  500. Codec ID : S_TEXT/UTF8

  501. Codec ID/Info : UTF-8 Plain Text

  502. Duration : 37 min 29 s

  503. Bit rate : 55 b/s

  504. Frame rate : 0.194 FPS

  505. Count of elements : 436

  506. Stream size : 15.3 KiB (0%)

  507. Title : Sloven?ina

  508. Language : Slovak

  509. Default : No

  510. Forced : No


  511. Text #34

  512. ID : 36

  513. Format : UTF-8

  514. Codec ID : S_TEXT/UTF8

  515. Codec ID/Info : UTF-8 Plain Text

  516. Duration : 37 min 29 s

  517. Bit rate : 50 b/s

  518. Frame rate : 0.187 FPS

  519. Count of elements : 420

  520. Stream size : 13.8 KiB (0%)

  521. Title : sloven??ina

  522. Language : Slovenian

  523. Default : No

  524. Forced : No


  525. Text #35

  526. ID : 37

  527. Format : UTF-8

  528. Codec ID : S_TEXT/UTF8

  529. Codec ID/Info : UTF-8 Plain Text

  530. Duration : 37 min 29 s

  531. Bit rate : 59 b/s

  532. Frame rate : 0.191 FPS

  533. Count of elements : 430

  534. Stream size : 16.4 KiB (0%)

  535. Title : Svenska

  536. Language : Swedish

  537. Default : No

  538. Forced : No


  539. Text #36

  540. ID : 38

  541. Format : UTF-8

  542. Codec ID : S_TEXT/UTF8

  543. Codec ID/Info : UTF-8 Plain Text

  544. Duration : 37 min 29 s

  545. Bit rate : 165 b/s

  546. Frame rate : 0.194 FPS

  547. Count of elements : 437

  548. Stream size : 45.4 KiB (0%)

  549. Title : ?????

  550. Language : Tamil

  551. Default : No

  552. Forced : No


  553. Text #37

  554. ID : 39

  555. Format : UTF-8

  556. Codec ID : S_TEXT/UTF8

  557. Codec ID/Info : UTF-8 Plain Text

  558. Duration : 37 min 29 s

  559. Bit rate : 167 b/s

  560. Frame rate : 0.194 FPS

  561. Count of elements : 437

  562. Stream size : 45.9 KiB (0%)

  563. Title : ??????

  564. Language : Telugu

  565. Default : No

  566. Forced : No


  567. Text #38

  568. ID : 40

  569. Format : UTF-8

  570. Codec ID : S_TEXT/UTF8

  571. Codec ID/Info : UTF-8 Plain Text

  572. Duration : 37 min 29 s

  573. Bit rate : 145 b/s

  574. Frame rate : 0.194 FPS

  575. Count of elements : 437

  576. Stream size : 39.9 KiB (0%)

  577. Title : ???

  578. Language : Thai

  579. Default : No

  580. Forced : No


  581. Text #39

  582. ID : 41

  583. Format : UTF-8

  584. Codec ID : S_TEXT/UTF8

  585. Codec ID/Info : UTF-8 Plain Text

  586. Duration : 37 min 29 s

  587. Bit rate : 57 b/s

  588. Frame rate : 0.192 FPS

  589. Count of elements : 433

  590. Stream size : 15.8 KiB (0%)

  591. Title : Türk?e

  592. Language : Turkish

  593. Default : No

  594. Forced : No


  595. Text #40

  596. ID : 42

  597. Format : UTF-8

  598. Codec ID : S_TEXT/UTF8

  599. Codec ID/Info : UTF-8 Plain Text

  600. Duration : 37 min 29 s

  601. Bit rate : 83 b/s

  602. Frame rate : 0.195 FPS

  603. Count of elements : 438

  604. Stream size : 22.9 KiB (0%)

  605. Title : укра?нська

  606. Language : Ukrainian

  607. Default : No

  608. Forced : No


  609. Text #41

  610. ID : 43

  611. Format : UTF-8

  612. Codec ID : S_TEXT/UTF8

  613. Codec ID/Info : UTF-8 Plain Text

  614. Duration : 37 min 29 s

  615. Bit rate : 74 b/s

  616. Frame rate : 0.194 FPS

  617. Count of elements : 437

  618. Stream size : 20.6 KiB (0%)

  619. Title : Ti?ng Vi?t

  620. Language : Vietnamese

  621. Default : No

  622. Forced : No


  623. Text #42

  624. ID : 44

  625. Format : UTF-8

  626. Codec ID : S_TEXT/UTF8

  627. Codec ID/Info : UTF-8 Plain Text

  628. Duration : 37 min 29 s

  629. Bit rate : 49 b/s

  630. Frame rate : 0.195 FPS

  631. Count of elements : 438

  632. Stream size : 13.5 KiB (0%)

  633. Title : 廣東話

  634. Language : Chinese

  635. Default : No

  636. Forced : No


  637. Text #43

  638. ID : 45

  639. Format : UTF-8

  640. Codec ID : S_TEXT/UTF8

  641. Codec ID/Info : UTF-8 Plain Text

  642. Duration : 37 min 29 s

  643. Bit rate : 48 b/s

  644. Frame rate : 0.194 FPS

  645. Count of elements : 437

  646. Stream size : 13.2 KiB (0%)

  647. Title : 中文(简体)

  648. Language : Chinese

  649. Default : No

  650. Forced : No


  651. Text #44

  652. ID : 46

  653. Format : UTF-8

  654. Codec ID : S_TEXT/UTF8

  655. Codec ID/Info : UTF-8 Plain Text

  656. Duration : 37 min 29 s

  657. Bit rate : 50 b/s

  658. Frame rate : 0.195 FPS

  659. Count of elements : 438

  660. Stream size : 13.8 KiB (0%)

  661. Title : 中文(繁體)

  662. Language : Chinese

  663. Default : No

  664. Forced : No

复制代码

露西的学校[中文字幕].Snoopy.Presents.Lucys.School.2022.2160p.ATVP.WEB DL.x265.10bit.SDR.DDP5.1.Atmos SALT 4.3  动画电影  第3张 露西的学校[中文字幕].Snoopy.Presents.Lucys.School.2022.2160p.ATVP.WEB DL.x265.10bit.SDR.DDP5.1.Atmos SALT 4.3  动画电影  第4张 露西的学校[中文字幕].Snoopy.Presents.Lucys.School.2022.2160p.ATVP.WEB DL.x265.10bit.SDR.DDP5.1.Atmos SALT 4.3  动画电影  第5张



文件下载


除非特别注明,本文『露西的学校[中文字幕].Snoopy.Presents.Lucys.School.2022.2160p.ATVP.WEB-DL.x265.10bit.SDR.DDP5.1.Atmos-SALT 4.3』来源于互联网机器人自动抓取,非本站原创。 浮游电影网不对本文拥有版权,如有侵犯,请联系邮箱:fuyouu#yandex.com[#换成@]投诉。我们会在15个工作日内删除。 但烦请转载时请标明出处:“本文转载于『浮游电影网』,原文地址:https://www.fuyouu.com/22769.html

评论吧骚年!

发表你的见解   

昵称*

E-mail*(建议输入,以便收到博主回复的提示邮件)

验证码*

您可以使用eMule或eMule Mod(Windows)、aMule(Win、Linux、Mac)等软件下载eD2k链接。。
eMule收藏集(.emulecollection)文件是您选中的所有链接的列表文件。eMule可以直接下载它们。
按住SHIFT键选择可以选中多个选择框。
可用文件名和大小选择器来选择文件。
文件名选择器帮您根据文件名称或后缀来选择文件。不分大小写。
符号使用:
和:空格( )、+
不包含:-
或:|
转义:一对英文引号("");
匹配开头:^
匹配结尾:$
例如:
选中所有名称中包含有“eMule”或“0.49c”字眼,但不包含有“exe”字眼的:emule|0.49c -exe
选中所有名称的开头是“eMule”,结尾是“0.49c”的:^emule 0.49c$
选中所有名称中带有“eMule 0.49c”的(必须是“eMule 0.49c”,中间没有别的字符,不能是“eMule fake 0.49c”),需要转义:"emule 0.49c"
大小选择器帮您根据文件大小选择文件。