当前位置: 首页 >> 港台电影 >> 夺命直播[国语配音/中文字幕].Social.Distancing.2022.2160p.WEB-DL.H265.AAC-MOMOWEB 1.47GB >> 正文

夺命直播[国语配音/中文字幕].Social.Distancing.2022.2160p.WEB-DL.H265.AAC-MOMOWEB 1.47GB

2022年08月12日 20:40:24     电影发布:来源于网络     电影分类:港台电影     评论(0)    

◎标 题 夺命直播

◎译 名 电子灵 / Social Distancing

◎片 名 電子靈

◎年 代 2022

◎产 地 中国香港

◎类 别 惊悚

◎语 言 粤语 / 汉语普通话

◎上映日期 2022-08-12(中国大陆网络)

◎IMDb链接 https://www.imdb.com/title//

◎豆瓣链接 https://movie.douban.com/subject/35231769/

◎片 长 89分钟

◎导 演 梁碧芝 Gilitte Leung

◎编 剧 梁碧芝 Gilitte Leung

◎演 员 李靖筠 Gladys Li

杨天宇 Angus Yeung

何珮瑜 Jeana Ho

龚慈恩 Mimi Kung

顾定轩 Zeno Koo

朱鉴然 kevin Chu

张达伦 Max Cheung

◎简 介

陈楚童(李靖筠 饰)是一个典型的低头族青年,她在视频网站看到一条关于切勿沉迷电子产品的警告,一开始她并不以为意,依然沉迷直播。直至生活里出现越来越多诡异的事件,才让她觉得事情并非她想象的那样简单,于是她找来好友林子强(杨天宇 饰)帮忙解决。

当二人以为事件告一段落时,楚童的家人却都离奇消失,无奈之下二人只能根据线索一步步追寻到指引中的神秘大厦。在大厦的异度空间里,楚童埋藏在心灵深处的秘密一层一层被揭开,她对朋友、家人曾有过的愧疚也被一一揭晓。似乎有一股神秘力量一步步指引她去面对真实的自己、去面对那些曾逃避的事情……而面对这一切能够解决的唯一方法:是她必须从电子世界里走出来,放下手机,去拥抱和关心自己身边的人。

  1. ##### MediaInfo ######

  2. General

  3. Unique ID : 275296420201989668993441090227394378245 (0xCF1C2973EA118465EF4B0850E720FA05)

  4. Complete name : Social.Distancing.2022.2160p.WEB-DL.H265.AAC-MOMOWEB.mkv

  5. Format : Matroska

  6. Format version : Version 4

  7. File size : 1.47 GiB

  8. Duration : 1 h 31 min

  9. Overall bit rate : 2 304 kb/s

  10. Encoded date : UTC 2022-08-12 03:25:54

  11. Writing application : mkvmerge v58.0.0 ('Supper's Ready') 64-bit

  12. Writing library : libebml v1.4.2 + libmatroska v1.6.4

  13. Video

  14. ID : 1

  15. Format : HEVC

  16. Format/Info : High Efficiency Video Coding

  17. Format profile : [email protected]@Main

  18. Codec ID : V_MPEGH/ISO/HEVC

  19. Duration : 1 h 31 min

  20. Bit rate : 2 116 kb/s

  21. Width : 3 840 pixels

  22. Height : 1 624 pixels

  23. Display aspect ratio : 2.35:1

  24. Frame rate mode : Variable

  25. Frame rate : 23.918 FPS

  26. Original frame rate : 24.000 FPS

  27. Color space : YUV

  28. Chroma subsampling : 4:2:0

  29. Bit depth : 8 bits

  30. Bits/(Pixel*Frame) : 0.014

  31. Stream size : 1.35 GiB (92%)

  32. Language : Chinese

  33. Default : Yes

  34. Forced : No

  35. Audio

  36. ID : 2

  37. Format : AAC LC

  38. Format/Info : Advanced Audio Codec Low Complexity

  39. Codec ID : A_AAC-2

  40. Duration : 1 h 31 min

  41. Bit rate : 186 kb/s

  42. Channel(s) : 2 channels

  43. Channel layout : L R

  44. Sampling rate : 44.1 kHz

  45. Frame rate : 43.066 FPS (1024 SPF)

  46. Compression mode : Lossy

  47. Stream size : 122 MiB (8%)

  48. Language : Chinese

  49. Default : Yes

  50. Forced : No


复制代码



文件下载


除非特别注明,本文『夺命直播[国语配音/中文字幕].Social.Distancing.2022.2160p.WEB-DL.H265.AAC-MOMOWEB 1.47GB』来源于互联网机器人自动抓取,非本站原创。 浮游电影网不对本文拥有版权,如有侵犯,请联系邮箱:fuyouu#yandex.com[#换成@]投诉。我们会在15个工作日内删除。 但烦请转载时请标明出处:“本文转载于『浮游电影网』,原文地址:https://www.fuyouu.com/22766.html

评论吧骚年!

发表你的见解   

昵称*

E-mail*(建议输入,以便收到博主回复的提示邮件)

验证码*

您可以使用eMule或eMule Mod(Windows)、aMule(Win、Linux、Mac)等软件下载eD2k链接。。
eMule收藏集(.emulecollection)文件是您选中的所有链接的列表文件。eMule可以直接下载它们。
按住SHIFT键选择可以选中多个选择框。
可用文件名和大小选择器来选择文件。
文件名选择器帮您根据文件名称或后缀来选择文件。不分大小写。
符号使用:
和:空格( )、+
不包含:-
或:|
转义:一对英文引号("");
匹配开头:^
匹配结尾:$
例如:
选中所有名称中包含有“eMule”或“0.49c”字眼,但不包含有“exe”字眼的:emule|0.49c -exe
选中所有名称的开头是“eMule”,结尾是“0.49c”的:^emule 0.49c$
选中所有名称中带有“eMule 0.49c”的(必须是“eMule 0.49c”,中间没有别的字符,不能是“eMule fake 0.49c”),需要转义:"emule 0.49c"
大小选择器帮您根据文件大小选择文件。