当前位置: 首页 >> 海外电影 >> 疯矿入侵[中文字幕].Office.Invasion.2022.1080p.NF.WEBRip.DDP5.1.x264-SMURF 5.52GB >> 正文

疯矿入侵[中文字幕].Office.Invasion.2022.1080p.NF.WEBRip.DDP5.1.x264-SMURF 5.52GB

2022年08月11日 16:30:20     电影发布:来源于网络     电影分类:海外电影     评论(0)    

疯矿入侵[中文字幕].Office.Invasion.2022.1080p.NF.WEBRip.DDP5.1.x264 SMURF 5.52GB  海外电影  第1张

疯矿入侵[中文字幕].Office.Invasion.2022.1080p.NF.WEBRip.DDP5.1.x264 SMURF 5.52GB  海外电影  第2张

◎译 名 疯矿入侵

◎片 名 Office Invasion

◎年 代 2022

◎产 地 南非

◎类 别 喜剧 / 动作 / 科幻

◎语 言 英语

◎上映日期 2022-08-10(南非)

◎IMDb链接 https://www.imdb.com/title/tt21440188/

◎豆瓣链接 https://movie.douban.com/subject/36054564/

◎片 长 112分钟

◎简 介

Three best friends band together to defend their valuable mining company from monstrous aliens looking to plunder and exterminate.

  1. Video

  2. ID : 1

  3. Format : AVC

  4. Format/Info : Advanced Video Codec

  5. Format profile : [email protected]

  6. Format settings : CABAC / 4 Ref Frames

  7. Format settings, CABAC : Yes

  8. Format settings, Reference frames : 4 frames

  9. Codec ID : V_MPEG4/ISO/AVC

  10. Duration : 1 h 52 min

  11. Bit rate mode : Variable

  12. Bit rate : 6 358 kb/s

  13. Maximum bit rate : 20.0 Mb/s

  14. Width : 1 920 pixels

  15. Height : 1 080 pixels

  16. Display aspect ratio : 16:9

  17. Frame rate mode : Constant

  18. Frame rate : 25.000 FPS

  19. Color space : YUV

  20. Chroma subsampling : 4:2:0

  21. Bit depth : 8 bits

  22. Scan type : Progressive

  23. Bits/(Pixel*Frame) : 0.123

  24. Stream size : 5.01 GiB (91%)

  25. Writing library : x264 core 148 r2727 7d026e8

  26. Encoding settings : cabac=1 / ref=4 / deblock=1:0:0 / analyse=0x3:0x111 / me=umh / subme=10 / psy=1 / psy_rd=1.00:0.00 / mixed_ref=1 / me_range=120 / chroma_me=1 / trellis=2 / 8x8dct=1 / cqm=0 / deadzone=21,11 / fast_pskip=1 / chroma_qp_offset=-2 / threads=8 / lookahead_threads=2 / sliced_threads=0 / nr=0 / decimate=1 / interlaced=0 / NTMzNTQ= / bluray_compat=0 / stitchable=1 / constrained_intra=0 / bframes=16 / b_pyramid=2 / b_adapt=2 / b_bias=0 / direct=3 / weightb=1 / open_gop=0 / weightp=2 / keyint=250 / keyint_min=126 / scenecut=0 / intra_refresh=0 / rc_lookahead=250 / rc=crf / mbtree=1 / crf=16.0 / qcomp=0.50 / qpmin=6 / qpmax=51 / qpstep=4 / vbv_maxrate=20000 / vbv_bufsize=25000 / crf_max=0.0 / nal_hrd=vbr / filler=0 / NTMzNTQ=LmsMAP37EqsCpk / ip_ratio=1.40 / aq=1:0.80

  27. Language : English

  28. Default : Yes

  29. Forced : No


  30. Audio

  31. ID : 2

  32. Format : E-AC-3

  33. Format/Info : Enhanced AC-3

  34. Commercial name : Dolby Digital Plus

  35. Codec ID : A_EAC3

  36. Duration : 1 h 52 min

  37. Bit rate mode : Constant

  38. Bit rate : 640 kb/s

  39. Channel(s) : 6 channels

  40. Channel layout : L R C LFE Ls Rs

  41. Sampling rate : 48.0 kHz

  42. Frame rate : 31.250 FPS (1536 SPF)

  43. Compression mode : Lossy

  44. Stream size : 517 MiB (9%)

  45. Language : English

  46. Service kind : Complete Main

  47. Default : Yes

  48. Forced : No


  49. Text #1

  50. ID : 3

  51. Format : UTF-8

  52. Codec ID : S_TEXT/UTF8

  53. Codec ID/Info : UTF-8 Plain Text

  54. Duration : 1 h 19 min

  55. Bit rate : 0 b/s

  56. Frame rate : 0.001 FPS

  57. Count of elements : 3

  58. Stream size : 118 Bytes (0%)

  59. Title : Forced

  60. Language : English

  61. Default : Yes

  62. Forced : Yes


  63. Text #2

  64. ID : 4

  65. Format : UTF-8

  66. Codec ID : S_TEXT/UTF8

  67. Codec ID/Info : UTF-8 Plain Text

  68. Duration : 1 h 48 min

  69. Bit rate : 70 b/s

  70. Frame rate : 0.284 FPS

  71. Count of elements : 1857

  72. Stream size : 55.8 KiB (0%)

  73. Language : English

  74. Default : No

  75. Forced : No


  76. Text #3

  77. ID : 5

  78. Format : UTF-8

  79. Codec ID : S_TEXT/UTF8

  80. Codec ID/Info : UTF-8 Plain Text

  81. Duration : 1 h 49 min

  82. Bit rate : 76 b/s

  83. Frame rate : 0.317 FPS

  84. Count of elements : 2085

  85. Stream size : 61.1 KiB (0%)

  86. Title : SDH

  87. Language : English

  88. Default : No

  89. Forced : No


  90. Text #4

  91. ID : 6

  92. Format : UTF-8

  93. Codec ID : S_TEXT/UTF8

  94. Codec ID/Info : UTF-8 Plain Text

  95. Duration : 1 h 52 min

  96. Bit rate : 106 b/s

  97. Frame rate : 0.269 FPS

  98. Count of elements : 1816

  99. Stream size : 88.0 KiB (0%)

  100. Language : Arabic

  101. Default : No

  102. Forced : No


  103. Text #5

  104. ID : 7

  105. Format : UTF-8

  106. Codec ID : S_TEXT/UTF8

  107. Codec ID/Info : UTF-8 Plain Text

  108. Duration : 1 h 52 min

  109. Bit rate : 61 b/s

  110. Frame rate : 0.259 FPS

  111. Count of elements : 1746

  112. Stream size : 50.3 KiB (0%)

  113. Language : Czech

  114. Default : No

  115. Forced : No


  116. Text #6

  117. ID : 8

  118. Format : UTF-8

  119. Codec ID : S_TEXT/UTF8

  120. Codec ID/Info : UTF-8 Plain Text

  121. Duration : 1 h 52 min

  122. Bit rate : 58 b/s

  123. Frame rate : 0.247 FPS

  124. Count of elements : 1663

  125. Stream size : 48.5 KiB (0%)

  126. Language : Danish

  127. Default : No

  128. Forced : No


  129. Text #7

  130. ID : 9

  131. Format : UTF-8

  132. Codec ID : S_TEXT/UTF8

  133. Codec ID/Info : UTF-8 Plain Text

  134. Duration : 1 h 52 min

  135. Bit rate : 65 b/s

  136. Frame rate : 0.262 FPS

  137. Count of elements : 1762

  138. Stream size : 53.6 KiB (0%)

  139. Language : German

  140. Default : No

  141. Forced : No


  142. Text #8

  143. ID : 10

  144. Format : UTF-8

  145. Codec ID : S_TEXT/UTF8

  146. Codec ID/Info : UTF-8 Plain Text

  147. Duration : 1 h 52 min

  148. Bit rate : 102 b/s

  149. Frame rate : 0.281 FPS

  150. Count of elements : 1892

  151. Stream size : 84.3 KiB (0%)

  152. Language : Greek

  153. Default : No

  154. Forced : No


  155. Text #9

  156. ID : 11

  157. Format : UTF-8

  158. Codec ID : S_TEXT/UTF8

  159. Codec ID/Info : UTF-8 Plain Text

  160. Duration : 1 h 52 min

  161. Bit rate : 59 b/s

  162. Frame rate : 0.270 FPS

  163. Count of elements : 1820

  164. Stream size : 49.3 KiB (0%)

  165. Language : Spanish

  166. Default : No

  167. Forced : No


  168. Text #10

  169. ID : 12

  170. Format : UTF-8

  171. Codec ID : S_TEXT/UTF8

  172. Codec ID/Info : UTF-8 Plain Text

  173. Duration : 1 h 52 min

  174. Bit rate : 61 b/s

  175. Frame rate : 0.260 FPS

  176. Count of elements : 1754

  177. Stream size : 50.9 KiB (0%)

  178. Title : European

  179. Language : Spanish

  180. Default : No

  181. Forced : No


  182. Text #11

  183. ID : 13

  184. Format : UTF-8

  185. Codec ID : S_TEXT/UTF8

  186. Codec ID/Info : UTF-8 Plain Text

  187. Duration : 1 h 52 min

  188. Bit rate : 51 b/s

  189. Frame rate : 0.264 FPS

  190. Count of elements : 1778

  191. Stream size : 42.6 KiB (0%)

  192. Language : Finnish

  193. Default : No

  194. Forced : No


  195. Text #12

  196. ID : 14

  197. Format : UTF-8

  198. Codec ID : S_TEXT/UTF8

  199. Codec ID/Info : UTF-8 Plain Text

  200. Duration : 1 h 52 min

  201. Bit rate : 62 b/s

  202. Frame rate : 0.257 FPS

  203. Count of elements : 1731

  204. Stream size : 51.7 KiB (0%)

  205. Language : French

  206. Default : No

  207. Forced : No


  208. Text #13

  209. ID : 15

  210. Format : UTF-8

  211. Codec ID : S_TEXT/UTF8

  212. Codec ID/Info : UTF-8 Plain Text

  213. Duration : 1 h 52 min

  214. Bit rate : 105 b/s

  215. Frame rate : 0.257 FPS

  216. Count of elements : 1728

  217. Stream size : 86.9 KiB (0%)

  218. Language : Hebrew

  219. Default : No

  220. Forced : No


  221. Text #14

  222. ID : 16

  223. Format : UTF-8

  224. Codec ID : S_TEXT/UTF8

  225. Codec ID/Info : UTF-8 Plain Text

  226. Duration : 1 h 52 min

  227. Bit rate : 54 b/s

  228. Frame rate : 0.267 FPS

  229. Count of elements : 1795

  230. Stream size : 44.6 KiB (0%)

  231. Language : Croatian

  232. Default : No

  233. Forced : No


  234. Text #15

  235. ID : 17

  236. Format : UTF-8

  237. Codec ID : S_TEXT/UTF8

  238. Codec ID/Info : UTF-8 Plain Text

  239. Duration : 1 h 52 min

  240. Bit rate : 63 b/s

  241. Frame rate : 0.252 FPS

  242. Count of elements : 1698

  243. Stream size : 51.9 KiB (0%)

  244. Language : Hungarian

  245. Default : No

  246. Forced : No


  247. Text #16

  248. ID : 18

  249. Format : UTF-8

  250. Codec ID : S_TEXT/UTF8

  251. Codec ID/Info : UTF-8 Plain Text

  252. Duration : 1 h 52 min

  253. Bit rate : 65 b/s

  254. Frame rate : 0.270 FPS

  255. Count of elements : 1816

  256. Stream size : 53.7 KiB (0%)

  257. Language : Indonesian

  258. Default : No

  259. Forced : No


  260. Text #17

  261. ID : 19

  262. Format : UTF-8

  263. Codec ID : S_TEXT/UTF8

  264. Codec ID/Info : UTF-8 Plain Text

  265. Duration : 1 h 52 min

  266. Bit rate : 60 b/s

  267. Frame rate : 0.275 FPS

  268. Count of elements : 1850

  269. Stream size : 50.0 KiB (0%)

  270. Language : Italian

  271. Default : No

  272. Forced : No


  273. Text #18

  274. ID : 20

  275. Format : UTF-8

  276. Codec ID : S_TEXT/UTF8

  277. Codec ID/Info : UTF-8 Plain Text

  278. Duration : 1 h 49 min

  279. Bit rate : 52 b/s

  280. Frame rate : 0.257 FPS

  281. Count of elements : 1688

  282. Stream size : 42.0 KiB (0%)

  283. Language : Japanese

  284. Default : No

  285. Forced : No


  286. Text #19

  287. ID : 21

  288. Format : UTF-8

  289. Codec ID : S_TEXT/UTF8

  290. Codec ID/Info : UTF-8 Plain Text

  291. Duration : 1 h 52 min

  292. Bit rate : 67 b/s

  293. Frame rate : 0.272 FPS

  294. Count of elements : 1834

  295. Stream size : 55.5 KiB (0%)

  296. Language : Korean

  297. Default : No

  298. Forced : No


  299. Text #20

  300. ID : 22

  301. Format : UTF-8

  302. Codec ID : S_TEXT/UTF8

  303. Codec ID/Info : UTF-8 Plain Text

  304. Duration : 1 h 52 min

  305. Bit rate : 60 b/s

  306. Frame rate : 0.257 FPS

  307. Count of elements : 1730

  308. Stream size : 49.3 KiB (0%)

  309. Language : Malay

  310. Default : No

  311. Forced : No


  312. Text #21

  313. ID : 23

  314. Format : UTF-8

  315. Codec ID : S_TEXT/UTF8

  316. Codec ID/Info : UTF-8 Plain Text

  317. Duration : 1 h 52 min

  318. Bit rate : 55 b/s

  319. Frame rate : 0.235 FPS

  320. Count of elements : 1583

  321. Stream size : 45.7 KiB (0%)

  322. Language : Norwegian Bokmal

  323. Default : No

  324. Forced : No


  325. Text #22

  326. ID : 24

  327. Format : UTF-8

  328. Codec ID : S_TEXT/UTF8

  329. Codec ID/Info : UTF-8 Plain Text

  330. Duration : 1 h 52 min

  331. Bit rate : 60 b/s

  332. Frame rate : 0.248 FPS

  333. Count of elements : 1668

  334. Stream size : 49.6 KiB (0%)

  335. Language : Dutch

  336. Default : No

  337. Forced : No


  338. Text #23

  339. ID : 25

  340. Format : UTF-8

  341. Codec ID : S_TEXT/UTF8

  342. Codec ID/Info : UTF-8 Plain Text

  343. Duration : 1 h 52 min

  344. Bit rate : 58 b/s

  345. Frame rate : 0.265 FPS

  346. Count of elements : 1786

  347. Stream size : 47.9 KiB (0%)

  348. Language : Polish

  349. Default : No

  350. Forced : No


  351. Text #24

  352. ID : 26

  353. Format : UTF-8

  354. Codec ID : S_TEXT/UTF8

  355. Codec ID/Info : UTF-8 Plain Text

  356. Duration : 1 h 52 min

  357. Bit rate : 58 b/s

  358. Frame rate : 0.263 FPS

  359. Count of elements : 1773

  360. Stream size : 48.4 KiB (0%)

  361. Language : Portuguese

  362. Default : No

  363. Forced : No


  364. Text #25

  365. ID : 27

  366. Format : UTF-8

  367. Codec ID : S_TEXT/UTF8

  368. Codec ID/Info : UTF-8 Plain Text

  369. Duration : 1 h 52 min

  370. Bit rate : 59 b/s

  371. Frame rate : 0.266 FPS

  372. Count of elements : 1788

  373. Stream size : 48.8 KiB (0%)

  374. Title : Brazilian

  375. Language : Portuguese

  376. Default : No

  377. Forced : No


  378. Text #26

  379. ID : 28

  380. Format : UTF-8

  381. Codec ID : S_TEXT/UTF8

  382. Codec ID/Info : UTF-8 Plain Text

  383. Duration : 1 h 52 min

  384. Bit rate : 56 b/s

  385. Frame rate : 0.269 FPS

  386. Count of elements : 1812

  387. Stream size : 46.4 KiB (0%)

  388. Language : Romanian

  389. Default : No

  390. Forced : No


  391. Text #27

  392. ID : 29

  393. Format : UTF-8

  394. Codec ID : S_TEXT/UTF8

  395. Codec ID/Info : UTF-8 Plain Text

  396. Duration : 1 h 52 min

  397. Bit rate : 100 b/s

  398. Frame rate : 0.260 FPS

  399. Count of elements : 1753

  400. Stream size : 82.7 KiB (0%)

  401. Language : Russian

  402. Default : No

  403. Forced : No


  404. Text #28

  405. ID : 30

  406. Format : UTF-8

  407. Codec ID : S_TEXT/UTF8

  408. Codec ID/Info : UTF-8 Plain Text

  409. Duration : 1 h 52 min

  410. Bit rate : 58 b/s

  411. Frame rate : 0.248 FPS

  412. Count of elements : 1669

  413. Stream size : 47.8 KiB (0%)

  414. Language : Swedish

  415. Default : No

  416. Forced : No


  417. Text #29

  418. ID : 31

  419. Format : UTF-8

  420. Codec ID : S_TEXT/UTF8

  421. Codec ID/Info : UTF-8 Plain Text

  422. Duration : 1 h 52 min

  423. Bit rate : 149 b/s

  424. Frame rate : 0.269 FPS

  425. Count of elements : 1817

  426. Stream size : 124 KiB (0%)

  427. Language : Thai

  428. Default : No

  429. Forced : No


  430. Text #30

  431. ID : 32

  432. Format : UTF-8

  433. Codec ID : S_TEXT/UTF8

  434. Codec ID/Info : UTF-8 Plain Text

  435. Duration : 1 h 52 min

  436. Bit rate : 62 b/s

  437. Frame rate : 0.265 FPS

  438. Count of elements : 1784

  439. Stream size : 51.3 KiB (0%)

  440. Language : Turkish

  441. Default : No

  442. Forced : No


  443. Text #31

  444. ID : 33

  445. Format : UTF-8

  446. Codec ID : S_TEXT/UTF8

  447. Codec ID/Info : UTF-8 Plain Text

  448. Duration : 1 h 52 min

  449. Bit rate : 99 b/s

  450. Frame rate : 0.271 FPS

  451. Count of elements : 1827

  452. Stream size : 81.9 KiB (0%)

  453. Language : Ukrainian

  454. Default : No

  455. Forced : No


  456. Text #32

  457. ID : 34

  458. Format : UTF-8

  459. Codec ID : S_TEXT/UTF8

  460. Codec ID/Info : UTF-8 Plain Text

  461. Duration : 1 h 52 min

  462. Bit rate : 83 b/s

  463. Frame rate : 0.245 FPS

  464. Count of elements : 1653

  465. Stream size : 68.5 KiB (0%)

  466. Language : Vietnamese

  467. Default : No

  468. Forced : No


  469. Text #33

  470. ID : 35

  471. Format : UTF-8

  472. Codec ID : S_TEXT/UTF8

  473. Codec ID/Info : UTF-8 Plain Text

  474. Duration : 1 h 52 min

  475. Bit rate : 59 b/s

  476. Frame rate : 0.271 FPS

  477. Count of elements : 1831

  478. Stream size : 48.8 KiB (0%)

  479. Title : Simplified

  480. Language : Chinese

  481. Default : No

  482. Forced : No


  483. Text #34

  484. ID : 36

  485. Format : UTF-8

  486. Codec ID : S_TEXT/UTF8

  487. Codec ID/Info : UTF-8 Plain Text

  488. Duration : 1 h 52 min

  489. Bit rate : 55 b/s

  490. Frame rate : 0.271 FPS

  491. Count of elements : 1827

  492. Stream size : 45.3 KiB (0%)

  493. Title : Traditional

  494. Language : Chinese

  495. Default : No

  496. Forced : No

复制代码

疯矿入侵[中文字幕].Office.Invasion.2022.1080p.NF.WEBRip.DDP5.1.x264 SMURF 5.52GB  海外电影  第3张 疯矿入侵[中文字幕].Office.Invasion.2022.1080p.NF.WEBRip.DDP5.1.x264 SMURF 5.52GB  海外电影  第4张 疯矿入侵[中文字幕].Office.Invasion.2022.1080p.NF.WEBRip.DDP5.1.x264 SMURF 5.52GB  海外电影  第5张



文件下载


除非特别注明,本文『疯矿入侵[中文字幕].Office.Invasion.2022.1080p.NF.WEBRip.DDP5.1.x264-SMURF 5.52GB』来源于互联网机器人自动抓取,非本站原创。 浮游电影网不对本文拥有版权,如有侵犯,请联系邮箱:fuyouu#yandex.com[#换成@]投诉。我们会在15个工作日内删除。 但烦请转载时请标明出处:“本文转载于『浮游电影网』,原文地址:https://www.fuyouu.com/22763.html

评论吧骚年!

发表你的见解   

昵称*

E-mail*(建议输入,以便收到博主回复的提示邮件)

验证码*

您可以使用eMule或eMule Mod(Windows)、aMule(Win、Linux、Mac)等软件下载eD2k链接。。
eMule收藏集(.emulecollection)文件是您选中的所有链接的列表文件。eMule可以直接下载它们。
按住SHIFT键选择可以选中多个选择框。
可用文件名和大小选择器来选择文件。
文件名选择器帮您根据文件名称或后缀来选择文件。不分大小写。
符号使用:
和:空格( )、+
不包含:-
或:|
转义:一对英文引号("");
匹配开头:^
匹配结尾:$
例如:
选中所有名称中包含有“eMule”或“0.49c”字眼,但不包含有“exe”字眼的:emule|0.49c -exe
选中所有名称的开头是“eMule”,结尾是“0.49c”的:^emule 0.49c$
选中所有名称中带有“eMule 0.49c”的(必须是“eMule 0.49c”,中间没有别的字符,不能是“eMule fake 0.49c”),需要转义:"emule 0.49c"
大小选择器帮您根据文件大小选择文件。