当前位置: 首页 >> 国产电影 >> 隐入尘烟[国语配音/中文字幕].Return.to.Dust.2022.WEB-DL.1080p.H264.AAC-NUMTV 1.34GB >> 正文

隐入尘烟[国语配音/中文字幕].Return.to.Dust.2022.WEB-DL.1080p.H264.AAC-NUMTV 1.34GB

2022年08月10日 20:42:40     电影发布:来源于网络     电影分类:国产电影     评论(0)    

◎标 题 隐入尘烟

◎译 名 Return to Dust

◎年 代 2022

◎产 地 中国大陆

◎类 别 剧情

◎语 言 甘肃方言 / 汉语普通话

◎上映日期 2022-07-08(中国大陆) / 2022-02-13(柏林电影节)

◎IMDb评分 7.6/10 (223人评价)

◎IMDb链接 https://www.imdb.com/title/tt17097088/

◎豆瓣评分 8.4/10 (87604人评价)

◎豆瓣链接 https://movie.douban.com/subject/35131346/

◎片 长 133分钟

◎导 演 李睿珺 Ruijun Li

◎编 剧 李睿珺 Ruijun Li

◎演 员 武仁林 Renlin Wu

海清 Qing Hai

杨光锐 Guangrui Yang

武赟志 Yunzhi Wu

李生甫 Shengfu Li

张敏 Min Zhang

张一白 Yibai Zhang

覃宏 Hong Qin

张敏 Min Zhang

栗颜 Yan Li

裴曼·雅茨达尼安 Peyman Yazdanian

王维华 Weihua Wang

李睿珺 Ruijun Li

李睿珺 Ruijun Li

武仁林 Renlin Wu

王长锐 Changrui Wang

黄海 Hai Huang

◎简 介

影片讲述西北农村,两个被各自家庭抛弃的孤独个体,在日复一日的耕耘中相濡以沫的故事,武仁林与海清展现了一对底层农民夫妇从陌生到熟悉,从相知到相守的心路历程。

  1. ##### MediaInfo ######

  2. General

  3. Complete name : Return.to.Dust.2022.WEB-DL.1080p.H264.AAC-NUMTV.mp4

  4. Format : MPEG-4

  5. Format profile : Base Media

  6. Codec ID : isom (isom/iso2/avc1/mp41)

  7. File size : 1.34 GiB

  8. Duration : 2 h 13 min

  9. Overall bit rate mode : Variable

  10. Overall bit rate : 1 443 kb/s

  11. Writing application : Lavf58.76.100

  12. Video

  13. ID : 1

  14. Format : AVC

  15. Format/Info : Advanced Video Codec

  16. Format profile : [email protected]

  17. Format settings : CABAC / 6 Ref Frames

  18. Format settings, CABAC : Yes

  19. Format settings, Reference frames : 6 frames

  20. Codec ID : avc1

  21. Codec ID/Info : Advanced Video Coding

  22. Duration : 2 h 13 min

  23. Source duration : 2 h 13 min

  24. Bit rate : 1 342 kb/s

  25. Width : 1 920 pixels

  26. Height : 1 038 pixels

  27. Display aspect ratio : 1.85:1

  28. Frame rate mode : Variable

  29. Frame rate : 24.000 FPS

  30. Minimum frame rate : 23.994 FPS

  31. Maximum frame rate : 24.006 FPS

  32. Color space : YUV

  33. Chroma subsampling : 4:2:0

  34. Bit depth : 8 bits

  35. Scan type : Progressive

  36. Bits/(Pixel*Frame) : 0.028

  37. Stream size : 1.25 GiB (93%)

  38. Source stream size : 1.25 GiB (93%)

  39. mdhd_Duration : 8000376

  40. Codec configuration box : avcC

  41. Audio

  42. ID : 2

  43. Format : AAC LC

  44. Format/Info : Advanced Audio Codec Low Complexity

  45. Codec ID : mp4a-40-2

  46. Duration : 2 h 13 min

  47. Bit rate mode : Variable

  48. Bit rate : 93.4 kb/s

  49. Maximum bit rate : 96.8 kb/s / 96.8 kb/s

  50. Channel(s) : 2 channels

  51. Channel layout : L R

  52. Sampling rate : 48.0 kHz

  53. Frame rate : 46.875 FPS (1024 SPF)

  54. Compression mode : Lossy

  55. Stream size : 89.1 MiB (6%)

  56. Default : Yes

  57. Alternate group : 1



文件下载


除非特别注明,本文『隐入尘烟[国语配音/中文字幕].Return.to.Dust.2022.WEB-DL.1080p.H264.AAC-NUMTV 1.34GB』来源于互联网机器人自动抓取,非本站原创。 浮游电影网不对本文拥有版权,如有侵犯,请联系邮箱:fuyouu#yandex.com[#换成@]投诉。我们会在15个工作日内删除。 但烦请转载时请标明出处:“本文转载于『浮游电影网』,原文地址:https://www.fuyouu.com/22761.html

评论吧骚年!

发表你的见解   

昵称*

E-mail*(建议输入,以便收到博主回复的提示邮件)

验证码*

您可以使用eMule或eMule Mod(Windows)、aMule(Win、Linux、Mac)等软件下载eD2k链接。。
eMule收藏集(.emulecollection)文件是您选中的所有链接的列表文件。eMule可以直接下载它们。
按住SHIFT键选择可以选中多个选择框。
可用文件名和大小选择器来选择文件。
文件名选择器帮您根据文件名称或后缀来选择文件。不分大小写。
符号使用:
和:空格( )、+
不包含:-
或:|
转义:一对英文引号("");
匹配开头:^
匹配结尾:$
例如:
选中所有名称中包含有“eMule”或“0.49c”字眼,但不包含有“exe”字眼的:emule|0.49c -exe
选中所有名称的开头是“eMule”,结尾是“0.49c”的:^emule 0.49c$
选中所有名称中带有“eMule 0.49c”的(必须是“eMule 0.49c”,中间没有别的字符,不能是“eMule fake 0.49c”),需要转义:"emule 0.49c"
大小选择器帮您根据文件大小选择文件。