当前位置: 首页 >> 动画电影 >> 蜜熊的音乐奇旅[国英多音轨/简体字幕].Vivo.2021.1080p.BluRay.x265.10bit.DTS-CTRLHD 6.39GB >> 正文

蜜熊的音乐奇旅[国英多音轨/简体字幕].Vivo.2021.1080p.BluRay.x265.10bit.DTS-CTRLHD 6.39GB

2022年08月10日 20:41:47     电影发布:来源于网络     电影分类:动画电影     评论(0)    

◎标 题 蜜熊的音乐奇旅

◎译 名 蜜熊的夏天 / 维沃 / 维沃的精彩生活(台) / 蜜熊仔维沃(港)

◎片 名 Vivo

◎年 代 2021

◎产 地 美国 / 加拿大

◎类 别 动画 / 音乐 / 冒险

◎语 言 英语

◎上映日期 2021-11-05(中国大陆) / 2021-08-06(美国网络)

◎IMDb评分 6.7/10 (17685人评价)

◎IMDb链接 https://www.imdb.com/title/tt6338498/

◎豆瓣评分 6.6/10 (2756人评价)

◎豆瓣链接 https://movie.douban.com/subject/26935358/

◎片 长 95分钟

◎导 演 柯克·德·米科 Kirk De Micco

布兰登·杰佛兹 Brandon Jeffords

◎编 剧 柯克·德·米科 Kirk De Micco

琦亚拉·艾蕾葛莉亚·休德斯 Quiara Alegria Hudes

彼得·巴索奇尼 Peter Barsocchini

林-曼努尔·米兰达 Lin-Manuel Miranda

◎演 员 林-曼努尔·米兰达 Lin-Manuel Miranda

伊奈拉利·西莫 Ynairaly Simo

佐伊·索尔达娜 Zoe Saldana

迈克尔·鲁克 Michael Rooker

布莱恩·泰里·亨利 Brian Tyree Henry

胡安·德·马科斯·冈萨雷斯 Juan de Marcos González

葛洛丽亚·伊斯特芬 Gloria Estefan

妮可·拜尔 Nicole Byer

凯蒂·洛斯 Katie Lowes

奥利维亚·特鲁希略 Olivia Trujillo

莉娅·朱厄特 Lidya Jewett

莱斯利·大卫·贝克 Leslie David Baker

帕洛玛·莫拉莱斯 Paloma Morales

丹尼·皮诺 Danny Pino

瑞奇·摩尔 Rich Moore

苔丝·圣地亚哥 Tessie Santiago

Paolo Andino Paolo Andino

Omar Avila Omar Avila

卡特罗·科尔伯特 Catero Colbert

艾琳·加林多 Eileen Galindo

Michelle Jubilee Gonzalez Michelle Jubilee Gonzalez

杰森·格里菲斯 Jason Griffith

布里奇特·霍夫曼 Bridget Hoffman

斯科特·门维尔 Scott Menville

大卫·米驰 David Michie

乔纳森·尼科尔斯 Jonathan Nichols

杰奎琳·皮诺尔 Jacqueline Pinol

兰迪·汤姆 Randy Thom

谢尔碧·杨 Shelby Young

瑞奇·摩尔 Rich Moore

米歇尔·王 Michelle Wong

丽莎·斯图尔特 Lisa Stewart

林-曼努尔·米兰达 Lin-Manuel Miranda

永杜俊 Yong Duk Jhun

永杜俊 Yong Duk Jhun

◎简 介

影片讲述了一个欢乐又温暖的故事。为了完成爷爷安德烈的遗愿,嘻哈搭档蜜熊维沃(林-曼努尔·米兰达 配音)与酷女孩加比(伊奈拉利·西莫 配音)化身“爱的信使”踏上了一段奇妙冒险旅途。然而,一路上囧况不断,欢乐与惊险并存,他们能完成任务吗?

  1. ##### MediaInfo ######

  2. General

  3. Unique ID : 172449924690418895574775392235045302315 (0x81BCA5BB25303186AC5171AB0110B02B)

  4. Complete name : Vivo.2021.1080p.BluRay.x265.10bit.DTS-CTRLHD.mkv

  5. Format : Matroska

  6. Format version : Version 1

  7. File size : 6.39 GiB

  8. Duration : 1 h 35 min

  9. Overall bit rate : 9 560 kb/s

  10. Encoded date : UTC 2022-08-09 00:29:40

  11. Writing application : mkvmerge v2.2.0 ('Turn It On Again') built on Mar 4 2008 13:20:25

  12. Writing library : libebml v0.7.7 + libmatroska v0.8.1

  13. Attachments : MSYH.TTF / MSYH_chscht.ttf / MSYHBD.TTF / tahoma.ttf

  14. Video

  15. ID : 1

  16. Format : HEVC

  17. Format/Info : High Efficiency Video Coding

  18. Format profile : Main [email protected]@Main

  19. Codec ID : V_MPEGH/ISO/HEVC

  20. Duration : 1 h 35 min

  21. Bit rate : 6 580 kb/s

  22. Width : 1 920 pixels

  23. Height : 804 pixels

  24. Display aspect ratio : 2.40:1

  25. Frame rate mode : Constant

  26. Frame rate : 23.976 (24000/1001/53354) FPS

  27. Color space : YUV

  28. Chroma subsampling : 4:2:0

  29. Bit depth : 10 bits

  30. Bits/(Pixel*Frame) : 0.178

  31. Stream size : 4.40 GiB (69%)

  32. Default : Yes

  33. Forced : No

  34. Audio #1

  35. ID : 2

  36. Format : DTS

  37. Format/Info : Digital Theater Systems

  38. Codec ID : A_DTS

  39. Duration : 1 h 35 min

  40. Bit rate mode : Constant

  41. Bit rate : 1 509 kb/s

  42. Channel(s) : 6 channels

  43. Channel layout : C L R Ls Rs LFE

  44. Sampling rate : 48.0 kHz

  45. Frame rate : 93.750 FPS (512 SPF)

  46. Bit depth : 16 bits

  47. Compression mode : Lossy

  48. Stream size : 1.01 GiB (16%)

  49. Title : 英语

  50. Language : English

  51. Default : No

  52. Forced : No

  53. Statistics Tags Issue : mkvmerge v67.0.0 ('Under Stars') 64-bit 2022-08-06 05:22:37 / mkvmerge v2.2.0 ('Turn It On Again') built on Mar 4 2008 13:20:25 2022-08-09 00:29:40

  54. FromStats_BitRate : 1509001

  55. FromStats_Duration : 01:35:40.736000000

  56. FromStats_FrameCount : 538194

  57. FromStats_StreamSize : 1082847076

  58. Audio #2

  59. ID : 3

  60. Format : AC-3

  61. Format/Info : Audio Coding 3

  62. Commercial name : Dolby Digital

  63. Codec ID : A_AC3

  64. Duration : 1 h 35 min

  65. Bit rate mode : Constant

  66. Bit rate : 640 kb/s

  67. Channel(s) : 6 channels

  68. Channel layout : L R C LFE Ls Rs

  69. Sampling rate : 48.0 kHz

  70. Frame rate : 31.250 FPS (1536 SPF)

  71. Compression mode : Lossy

  72. Stream size : 438 MiB (7%)

  73. Title : 上译国配

  74. Language : Chinese

  75. Service kind : Complete Main

  76. Default : Yes

  77. Forced : No

  78. Statistics Tags Issue : mkvmerge v67.0.0 ('Under Stars') 64-bit 2022-08-06 05:22:37 / mkvmerge v2.2.0 ('Turn It On Again') built on Mar 4 2008 13:20:25 2022-08-09 00:29:40

  79. FromStats_BitRate : 640000

  80. FromStats_Duration : 01:35:40.736000000

  81. FromStats_FrameCount : 179398

  82. FromStats_StreamSize : 459258880

  83. Audio #3

  84. ID : 4

  85. Format : AC-3

  86. Format/Info : Audio Coding 3

  87. Commercial name : Dolby Digital

  88. Codec ID : A_AC3

  89. Duration : 1 h 35 min

  90. Bit rate mode : Constant

  91. Bit rate : 640 kb/s

  92. Channel(s) : 2 channels

  93. Channel layout : L R

  94. Sampling rate : 48.0 kHz

  95. Frame rate : 31.250 FPS (1536 SPF)

  96. Compression mode : Lossy

  97. Stream size : 438 MiB (7%)

  98. Title : 公映国配

  99. Language : Chinese

  100. Service kind : Complete Main

  101. Default : No

  102. Forced : No

  103. Text

  104. ID : 5

  105. Format : ASS

  106. Codec ID : S_TEXT/ASS

  107. Codec ID/Info : Advanced Sub Station Alpha

  108. Compression mode : Lossless

  109. Title : chs

  110. Language : Chinese

  111. Default : Yes

  112. Forced : No



文件下载


除非特别注明,本文『蜜熊的音乐奇旅[国英多音轨/简体字幕].Vivo.2021.1080p.BluRay.x265.10bit.DTS-CTRLHD 6.39GB』来源于互联网机器人自动抓取,非本站原创。 浮游电影网不对本文拥有版权,如有侵犯,请联系邮箱:fuyouu#yandex.com[#换成@]投诉。我们会在15个工作日内删除。 但烦请转载时请标明出处:“本文转载于『浮游电影网』,原文地址:https://www.fuyouu.com/22760.html

评论吧骚年!

发表你的见解   

昵称*

E-mail*(建议输入,以便收到博主回复的提示邮件)

验证码*

您可以使用eMule或eMule Mod(Windows)、aMule(Win、Linux、Mac)等软件下载eD2k链接。。
eMule收藏集(.emulecollection)文件是您选中的所有链接的列表文件。eMule可以直接下载它们。
按住SHIFT键选择可以选中多个选择框。
可用文件名和大小选择器来选择文件。
文件名选择器帮您根据文件名称或后缀来选择文件。不分大小写。
符号使用:
和:空格( )、+
不包含:-
或:|
转义:一对英文引号("");
匹配开头:^
匹配结尾:$
例如:
选中所有名称中包含有“eMule”或“0.49c”字眼,但不包含有“exe”字眼的:emule|0.49c -exe
选中所有名称的开头是“eMule”,结尾是“0.49c”的:^emule 0.49c$
选中所有名称中带有“eMule 0.49c”的(必须是“eMule 0.49c”,中间没有别的字符,不能是“eMule fake 0.49c”),需要转义:"emule 0.49c"
大小选择器帮您根据文件大小选择文件。