当前位置: 首页 >> 欧美电影 >> 尸骨无存[共4部合集][简繁字幕].Cabin.Fever.2002-2016.BluRay.1080p.DTS-HD.MA5.1.x265.10bit-ALT 29.24GB >> 正文

尸骨无存[共4部合集][简繁字幕].Cabin.Fever.2002-2016.BluRay.1080p.DTS-HD.MA5.1.x265.10bit-ALT 29.24GB

2022年08月09日 21:18:26     电影发布:来源于网络     电影分类:欧美电影     评论(0)    

◎标 题 尸骨无存

◎译 名 舱热症

◎片 名 Cabin Fever

◎年 代 2002

◎产 地 美国

◎类 别 惊悚 / 恐怖

◎语 言 英语

◎上映日期 2002-09-14

◎IMDb评分 5.6/10 (76488人评价)

◎IMDb链接 https://www.imdb.com/title/tt0303816/

◎豆瓣评分 6.1/10 (7474人评价)

◎豆瓣链接 https://movie.douban.com/subject/1308069/

◎片 长 91分钟

◎导 演 伊莱·罗斯 Eli Roth

◎编 剧 伊莱·罗斯 Eli Roth

兰迪·珀尔斯坦 Randy Pearlstein

◎演 员 莱德尔·斯特朗 Rider Strong

乔丹·莱德 Jordan Ladd

詹姆斯·德贝罗 James DeBello

亚当·J·罗斯 Adam J. Roth

迈克尔·里尔登 Michael Reardon

阿里·维文 Arie Verveen

约翰·内夫 John Neff

蒂莫西·马森 Timothy Matson

莎蕾·德文 Charee Cuthrell

罗伯特·哈里斯 Robert Harris

乔伊·科恩 Joey Kern

马修·赫尔姆斯 Matthew Helms

伊莱·罗斯 Eli Roth

席瑞娜·文森 Cerina Vincent

希洛·斯特朗 Shiloh Strong

山姆·弗罗利奇 Sam Froelich

麦克·希尔 Mike Hill

加布里埃尔·罗斯 Gabriel Roth

杰赛普·安德鲁斯 Giuseppe Andrews

乔·亚当斯 Joe Adams

理查德·富勒顿 Richard Fullerton

伊莱·罗斯 Eli Roth

劳伦·默斯 Lauren Moews

山姆·弗罗利奇 Sam Froelich

内森·巴尔 Nathan Barr

安哲罗·巴达拉曼提 Angelo Badalamenti

斯科特·凯万 Scott Kevan

乔·亚当斯 Joe Adams

弗朗哥·贾科莫·卡本 Franco-Giacomo Carbone

埃里克·斯基尔 Erick Schiele

斯科特·格罗斯曼 Scott Grossman

◎标 签 恐怖 / 血腥 / 美国 / 惊悚 / 病毒 / 2002 / 美国电影 / 尸骨无存

◎简 介

毕业在即,某大学5名好友:杰夫(乔伊·卡恩 Joey Kern 饰)、卡伦(乔登·蕾德 Jordan Ladd 饰)、保罗(雷德·斯壮 Rider Strong 饰)、玛茜(席瑞娜·文森 Cerina Vincent 饰)和伯特(詹姆斯·德贝洛 James DeBello 饰)相约远离城市喧嚣,一起来到深山中的小屋度假狂欢。但是他们的欢乐很快为恐慌所取代,在山上他们遇见一个血肉模糊、全身溃烂的男子。此后不久,卡伦的身上也出现类似症状,她似乎被之前那个男人身上的病毒所感染,很快便死于非命。死神遽然降临,这群年轻人的生命和友情受到莫大考验……

本片荣获2003年葡萄牙亚洲奇幻电影节最佳国际影片第三名、2002年Sitges – Catalonian国际电影节最佳化妆奖。

  1. 合集文件列表:

  2. 1.Cabin.Fever.2.Spring.Fever.2009.BluRay.1080p.DTS-HD.MA5.1.x265.10bit-ALT.mkv 6.63GB

  3. 2.Cabin.Fever.3.Patient.Zero.2014.BluRay.1080p.DTS-HD.MA7.1.x265.10bit-ALT.mkv 7.06GB

  4. 3.Cabin.Fever.2002.DC.BluRay.1080p.DTS-HD.MA7.1.x265.10bit-ALT.mkv 9.71GB

  5. 4.Cabin.Fever.2016.BluRay.1080p.DTS-HD.MA5.1.x265.10bit-ALT.mkv 5.83GB


复制代码

  1. ##### MediaInfo ######

  2. General

  3. Unique ID : 266827398701748970379457154373544824702 (0xC8BD1674712BA7996D5F3E6899F3CF7E)

  4. Complete name : Cabin.Fever.2.Spring.Fever.2009.BluRay.1080p.DTS-HD.MA5.1.x265.10bit-ALT.mkv

  5. Format : Matroska

  6. Format version : Version 4

  7. File size : 6.63 GiB

  8. Duration : 1 h 26 min

  9. Overall bit rate mode : Variable

  10. Overall bit rate : 11.0 Mb/s

  11. Encoded date : UTC 2021-11-20 06:41:41

  12. Writing application : mkvmerge v49.0.0 ('Sick Of Losing Soulmates') 64-bit

  13. Writing library : libebml v1.4.0 + libmatroska v1.6.1

  14. Video

  15. ID : 1

  16. Format : HEVC

  17. Format/Info : High Efficiency Video Coding

  18. Format profile : Main [email protected]@High

  19. Codec ID : V_MPEGH/ISO/HEVC

  20. Duration : 1 h 26 min

  21. Bit rate : 8 671 kb/s

  22. Width : 1 920 pixels

  23. Height : 818 pixels

  24. Display aspect ratio : 2.35:1

  25. Frame rate mode : Constant

  26. Frame rate : 23.976 (24000/1001/53354) FPS

  27. Color space : YUV

  28. Chroma subsampling : 4:2:0

  29. Bit depth : 10 bits

  30. Bits/(Pixel*Frame) : 0.230

  31. Stream size : 5.22 GiB (79%)

  32. Title : HEVC, [email protected]@High, 24/1.001 fps @ 8670 kbps

  33. Writing library : x265 3.4+14-gd419c7152:[Windows][GCC 10.2.0][64 bit] 10bit

  34. Encoding settings : cpuid=533541111039 / frame-threads=4 / numa-pools=16 / wpp / pmode / pme / no-psnr / no-ssim / log-level=2 / input-csp=1 / input-res=1920x818 / interlace=0 / total-frames=123888 / level-idc=51 / high-tier=1 / uhd-bd=0 / ref=5 / no-allow-non-conformance / no-repeat-headers / annexb / no-aud / no-hrd / info / hash=0 / no-temporal-layers / open-gop / min-keyint=24 / keyint=240 / gop-lookahead=0 / bframes=6 / b-adapt=2 / b-pyramid / bframe-bias=0 / rc-lookahead=40 / lookahead-slices=0 / NTMzNTQ=uuDQuD2mJt9fsCf / scenecut=40 / hist-scenecut=0 / radl=0 / no-splice / no-intra-refresh / ctu=32 / min-cu-size=8 / no-rect / no-amp / max-tu-size=32 / tu-inter-depth=3 / tu-intra-depth=3 / limit-tu=4 / rdoq-level=2 / dynamic-rd=0.00 / no-ssim-rd / signhide / no-tskip / nr-intra=0 / nr-inter=0 / no-constrained-intra / no-strong-intra-smoothing / max-merge=4 / limit-refs=1 / limit-modes / me=3 / subme=4 / merange=25 / temporal-mvp / no-frame-dup / no-hme / weightp / weightb / no-analyze-src-pics / deblock=-3:-3 / no-sao / no-sao-non-deblock / rd=6 / selective-sao=0 / no-early-skip / rskip / no-fast-intra / no-tskip-fast / no-cu-lossless / b-intra / no-splitrd-skip / rdpenalty=0 / psy-rd=2.00 / psy-rdoq=1.00 / no-rd-refine / no-lossless / cbqpoffs=0 / crqpoffs=0 / rc=crf / crf=18.5 / qcomp=0.65 / qpstep=4 / stats-write=0 / stats-read=0 / vbv-maxrate=80000 / vbv-bufsize=80000 / vbv-init=0.9 / crf-max=0.0 / crf-min=0.0 / ipratio=1.40 / pbratio=1.30 / aq-mode=2 / aq-strength=0.85 / cutree / zone-count=0 / no-strict-cbr / qg-size=32 / no-rc-grain / qpmax=69 / qpmin=0 / no-const-vbv / sar=1 / overscan=0 / videoformat=5 / range=0 / colorprim=1 / transfer=1 / colormatrix=1 / chromaloc=0 / display-window=0 / cll=0,0 / min-luma=0 / max-luma=1023 / log2-max-poc-lsb=8 / vui-timing-info / vui-hrd-info / slices=1 / no-opt-qp-pps / no-opt-ref-list-length-pps / no-multi-pass-opt-rps / scenecut-bias=0.05 / hist-threshold=0.03 / no-opt-cu-delta-qp / no-aq-motion / no-hdr10 / no-hdr10-opt / no-dhdr10-opt / no-idr-recovery-sei / analysis-reuse-level=0 / analysis-save-reuse-level=0 / analysis-load-reuse-level=0 / scale-factor=0 / refine-intra=0 / refine-inter=0 / refine-mv=1 / refine-ctu-distortion=0 / no-limit-sao / ctu-info=0 / no-lowpass-dct / refine-analysis-type=0 / copy-pic=1 / max-ausize-factor=1.0 / no-dynamic-refine / no-single-sei / no-hevc-aq / no-svt / no-field / qp-adaptation-range=1.00 / no-scenecut-aware-qpconformance-window-offsets / right=0 / bottom=0 / NTMzNTQ= / decoder-max-rate=0

  35. Language : English

  36. Default : Yes

  37. Forced : No

  38. Color range : Limited

  39. Color primaries : BT.709

  40. Transfer characteristics : BT.709

  41. Matrix coefficients : BT.709

  42. Audio

  43. ID : 2

  44. Format : DTS XLL

  45. Format/Info : Digital Theater Systems

  46. Commercial name : DTS-HD Master Audio

  47. Codec ID : A_DTS

  48. Duration : 1 h 26 min

  49. Bit rate mode : Variable

  50. Bit rate : 2 315 kb/s

  51. Channel(s) : 6 channels

  52. Channel layout : C L R Ls Rs LFE

  53. Sampling rate : 48.0 kHz

  54. Frame rate : 93.750 FPS (512 SPF)

  55. Bit depth : 16 bits

  56. Compression mode : Lossless

  57. Stream size : 1.39 GiB (21%)

  58. Title : English DTS-HD Master Audio 5.1 @ 2315 kbps

  59. Language : English

  60. Default : Yes

  61. Forced : No

  62. Text #1

  63. ID : 3

  64. Format : PGS

  65. Codec ID : S_HDMV/PGS

  66. Codec ID/Info : Picture based subtitle format used on BDs/HD-DVDs

  67. Duration : 1 h 18 min

  68. Bit rate : 18.0 kb/s

  69. Count of elements : 2158

  70. Stream size : 10.1 MiB (0%)

  71. Title : Chs/SUP 简体

  72. Language : Chinese

  73. Default : Yes

  74. Forced : No

  75. Text #2

  76. ID : 4

  77. Format : PGS

  78. Codec ID : S_HDMV/PGS

  79. Codec ID/Info : Picture based subtitle format used on BDs/HD-DVDs

  80. Duration : 1 h 18 min

  81. Bit rate : 18.6 kb/s

  82. Count of elements : 2158

  83. Stream size : 10.4 MiB (0%)

  84. Title : Cht/SUP 繁体

  85. Language : Chinese

  86. Default : No

  87. Forced : No

  88. Menu

  89. 00:00:00.000 : en:第 01 章

  90. 00:06:24.968 : en:第 02 章

  91. 00:15:06.280 : en:第 03 章

  92. 00:22:04.740 : en:第 04 章

  93. 00:28:34.713 : en:第 05 章

  94. 00:33:36.223 : en:第 06 章

  95. 00:39:51.472 : en:第 07 章

  96. 00:46:09.642 : en:第 08 章

  97. 00:54:06.368 : en:第 09 章

  98. 01:00:07.896 : en:第 10 章

  99. 01:05:58.079 : en:第 11 章

  100. 01:12:43.859 : en:第 12 章

  101. 01:19:08.953 : en:第 13 章


复制代码



文件下载


除非特别注明,本文『尸骨无存[共4部合集][简繁字幕].Cabin.Fever.2002-2016.BluRay.1080p.DTS-HD.MA5.1.x265.10bit-ALT 29.24GB』来源于互联网机器人自动抓取,非本站原创。 浮游电影网不对本文拥有版权,如有侵犯,请联系邮箱:fuyouu#yandex.com[#换成@]投诉。我们会在15个工作日内删除。 但烦请转载时请标明出处:“本文转载于『浮游电影网』,原文地址:https://www.fuyouu.com/22757.html

评论吧骚年!

发表你的见解   

昵称*

E-mail*(建议输入,以便收到博主回复的提示邮件)

验证码*

您可以使用eMule或eMule Mod(Windows)、aMule(Win、Linux、Mac)等软件下载eD2k链接。。
eMule收藏集(.emulecollection)文件是您选中的所有链接的列表文件。eMule可以直接下载它们。
按住SHIFT键选择可以选中多个选择框。
可用文件名和大小选择器来选择文件。
文件名选择器帮您根据文件名称或后缀来选择文件。不分大小写。
符号使用:
和:空格( )、+
不包含:-
或:|
转义:一对英文引号("");
匹配开头:^
匹配结尾:$
例如:
选中所有名称中包含有“eMule”或“0.49c”字眼,但不包含有“exe”字眼的:emule|0.49c -exe
选中所有名称的开头是“eMule”,结尾是“0.49c”的:^emule 0.49c$
选中所有名称中带有“eMule 0.49c”的(必须是“eMule 0.49c”,中间没有别的字符,不能是“eMule fake 0.49c”),需要转义:"emule 0.49c"
大小选择器帮您根据文件大小选择文件。