当前位置: 首页 >> 动画电影 >> 诛仙[国语配音/中文字幕].Jade.Dynasty.S01.2022.1080p.WEB-DL.H264.AAC-NUMTV 0.99GB >> 正文

诛仙[国语配音/中文字幕].Jade.Dynasty.S01.2022.1080p.WEB-DL.H264.AAC-NUMTV 0.99GB

2022年08月08日 21:57:30     电影发布:来源于网络     电影分类:动画电影     评论(0)    

◎标 题 诛仙

◎译 名 诛仙动画

◎年 代 2022

◎产 地 中国大陆

◎类 别 爱情 / 动画 / 奇幻 / 古装

◎语 言 汉语普通话

◎上映日期 2022-08-02(中国大陆)

◎IMDb链接 https://www.imdb.com/title//

◎豆瓣链接 https://movie.douban.com/subject/35170006/

◎演 员 锦鲤 Jinwen Chen

段艺璇 Yixuan Duan

江月 Yue Jiang

赵梦娇 Mengjiao Zhao

◎简 介

一夜间惨变孤儿的张小凡被青云门收为弟子,经过五年刻苦修炼,他在师门七脉会武上大放异彩,后被派往空桑山打探魔教行迹,旅程中,他与师姐陆雪琪遭遇危难,并结识救护了魔教女子碧瑶,同时,新的危险也在前方等待着他。

  1. ##### MediaInfo ######

  2. General

  3. Complete name : 诛仙动画版.Jade.Dynasty.2022.S01E01.1080p.WEB-DL.H264.AAC-NUMTV.mp4

  4. Format : MPEG-4

  5. Format profile : Base Media

  6. Codec ID : isom (isom/iso2/avc1/mp41)

  7. File size : 310 MiB

  8. Duration : 19 min 58 s

  9. Overall bit rate mode : Variable

  10. Overall bit rate : 2 166 kb/s

  11. Writing application : OurTV Media Encoder

  12. Video

  13. ID : 1

  14. Format : AVC

  15. Format/Info : Advanced Video Codec

  16. Format profile : [email protected]

  17. Format settings : CABAC / 6 Ref Frames

  18. Format settings, CABAC : Yes

  19. Format settings, Reference frames : 6 frames

  20. Codec ID : avc1

  21. Codec ID/Info : Advanced Video Coding

  22. Duration : 19 min 58 s

  23. Bit rate : 2 066 kb/s

  24. Width : 1 920 pixels

  25. Height : 1 080 pixels

  26. Display aspect ratio : 16:9

  27. Frame rate mode : Variable

  28. Frame rate : 25.000 FPS

  29. Minimum frame rate : 24.993 FPS

  30. Maximum frame rate : 25.007 FPS

  31. Color space : YUV

  32. Chroma subsampling : 4:2:0

  33. Bit depth : 8 bits

  34. Scan type : Progressive

  35. Bits/(Pixel*Frame) : 0.040

  36. Stream size : 295 MiB (95%)

  37. Codec configuration box : avcC

  38. Audio

  39. ID : 2

  40. Format : AAC LC

  41. Format/Info : Advanced Audio Codec Low Complexity

  42. Codec ID : mp4a-40-2

  43. Duration : 19 min 58 s

  44. Bit rate mode : Variable

  45. Bit rate : 93.4 kb/s

  46. Maximum bit rate : 104 kb/s

  47. Channel(s) : 2 channels

  48. Channel layout : L R

  49. Sampling rate : 48.0 kHz

  50. Frame rate : 46.875 FPS (1024 SPF)

  51. Compression mode : Lossy

  52. Stream size : 13.3 MiB (4%)

  53. Default : Yes

  54. Alternate group : 1


复制代码



文件下载


除非特别注明,本文『诛仙[国语配音/中文字幕].Jade.Dynasty.S01.2022.1080p.WEB-DL.H264.AAC-NUMTV 0.99GB』来源于互联网机器人自动抓取,非本站原创。 浮游电影网不对本文拥有版权,如有侵犯,请联系邮箱:fuyouu#yandex.com[#换成@]投诉。我们会在15个工作日内删除。 但烦请转载时请标明出处:“本文转载于『浮游电影网』,原文地址:https://www.fuyouu.com/22754.html

评论吧骚年!

发表你的见解   

昵称*

E-mail*(建议输入,以便收到博主回复的提示邮件)

验证码*

您可以使用eMule或eMule Mod(Windows)、aMule(Win、Linux、Mac)等软件下载eD2k链接。。
eMule收藏集(.emulecollection)文件是您选中的所有链接的列表文件。eMule可以直接下载它们。
按住SHIFT键选择可以选中多个选择框。
可用文件名和大小选择器来选择文件。
文件名选择器帮您根据文件名称或后缀来选择文件。不分大小写。
符号使用:
和:空格( )、+
不包含:-
或:|
转义:一对英文引号("");
匹配开头:^
匹配结尾:$
例如:
选中所有名称中包含有“eMule”或“0.49c”字眼,但不包含有“exe”字眼的:emule|0.49c -exe
选中所有名称的开头是“eMule”,结尾是“0.49c”的:^emule 0.49c$
选中所有名称中带有“eMule 0.49c”的(必须是“eMule 0.49c”,中间没有别的字符,不能是“eMule fake 0.49c”),需要转义:"emule 0.49c"
大小选择器帮您根据文件大小选择文件。