当前位置: 首页 >> 欧美电影 >> 生命[共10部合集][国粤英多音轨/简繁英字幕].BBC.Life.2009.EP01-EP10.BluRay.1080p.3Audio.DTS-HD.HR.5.1.x265.10bit-ALT 70 >> 正文

生命[共10部合集][国粤英多音轨/简繁英字幕].BBC.Life.2009.EP01-EP10.BluRay.1080p.3Audio.DTS-HD.HR.5.1.x265.10bit-ALT 70

2022年08月07日 23:07:00     电影发布:来源于网络     电影分类:欧美电影     评论(0)    

生命[共10部合集][国粤英多音轨/简繁英字幕].BBC.Life.2009.EP01-EP10.BluRay.1080p.3Audio.DTS-HD.HR.5.1.x265.10bit-ALT 70.55GB

◎标 题 生命

◎译 名 BBC:生命 / 生命脉动

◎片 名 Life

◎年 代 2009

◎产 地 英国 / 希腊

◎类 别 纪录片

◎语 言 英语

◎上映日期 2009-10-12

◎IMDb评分 9.1/10 (39580人评价)

◎IMDb链接 https://www.imdb.com/title/tt1533395/

◎豆瓣评分 9.7/10 (9674人评价)

◎豆瓣链接 https://movie.douban.com/subject/4135259/

◎片 长 60分钟

◎导 演 玛莎·霍尔姆斯 Martha Holmes

◎演 员 大卫·爱登堡 David Attenborough

道格·艾伦 Doug Allen

奥普拉·温弗瑞 Oprah Winfrey

玛拉雅·瑞沃拉·德鲁 Malaya Rivera Drew

乔治·芬顿 George Fenton

◎标 签 纪录片 / 自然 / 英国 / 生命 / Life / 纪录 / BBC / 2009

◎简 介

《生命》是由BBC制作的十集系列纪录片,从2009年10月12日开始在BBC电视台播出。本片制作共耗时四年,全部以高清方式摄制。每集50分钟,外加10分钟的拍摄花絮,总共60分钟。根据《泰晤士报》报道,本系列片耗资一千万英镑,不过BBC官方并未证实这一数字。2009年是达尔文诞辰二百周年,也是《物种起源》发表150周年。为了进行纪念,本片力图展现自然界缤纷物种的多样性,和它们为适应环境而进化出的各种神奇生存本领。

1。 “挑战生命”生命的挑战

本系列的开篇列举全世界动物世界中种种非同寻常的觅食,捕食,求偶和育雏行为将观众引入。在佛罗里达湾,领头的宽吻海豚用尾鳍拍打在海水中造出一道浑浊的幕墙,其他海豚在鱼们跳出水面试图逃走的时候捕食它们。其他不寻常的协作捕食技巧还有,三只猎豹协同猎食一直鸵鸟,南极虎鲸向海豹发起的攻击。巴西的卷尾猴学会了用石块在开坚果取...

  1. 合集文件列表:

  2. 1.BBC.Life.2009.EP01.BluRay.1080p.3Audio.DTS-HD.HR.5.1.x265.10bit-ALT.mkv 6.28GB

  3. 2.BBC.Life.2009.EP02.BluRay.1080p.3Audio.DTS-HD.HR.5.1.x265.10bit-ALT.mkv 7.59GB

  4. 3.BBC.Life.2009.EP03.BluRay.1080p.3Audio.DTS-HD.HR.5.1.x265.10bit-ALT.mkv 7.46GB

  5. 4.BBC.Life.2009.EP04.BluRay.1080p.3Audio.DTS-HD.HR.5.1.x265.10bit-ALT.mkv 6.99GB

  6. 5.BBC.Life.2009.EP05.BluRay.1080p.3Audio.DTS-HD.HR.5.1.x265.10bit-ALT.mkv 6.30GB

  7. 6.BBC.Life.2009.EP06.BluRay.1080p.3Audio.DTS-HD.HR.5.1.x265.10bit-ALT.mkv 7.48GB

  8. 7.BBC.Life.2009.EP07.BluRay.1080p.3Audio.DTS-HD.HR.5.1.x265.10bit-ALT.mkv 8.26GB

  9. 8.BBC.Life.2009.EP08.BluRay.1080p.3Audio.DTS-HD.HR.5.1.x265.10bit-ALT.mkv 7.44GB

  10. 9.BBC.Life.2009.EP09.BluRay.1080p.3Audio.DTS-HD.HR.5.1.x265.10bit-ALT.mkv 5.92GB

  11. 10.BBC.Life.2009.EP10.BluRay.1080p.3Audio.DTS-HD.HR.5.1.x265.10bit-ALT.mkv 6.84GB


复制代码

  1. ##### MediaInfo ######

  2. General

  3. Unique ID : 302708392835186923199742124000420712121 (0xE3BB840CA3B073F2987502732BFA4EB9)

  4. Complete name : BBC.Life.2009.EP01.BluRay.1080p.3Audio.DTS-HD.HR.5.1.x265.10bit-ALT.mkv

  5. Format : Matroska

  6. Format version : Version 4

  7. File size : 6.28 GiB

  8. Duration : 1 h 1 min

  9. Overall bit rate : 14.7 Mb/s

  10. Encoded date : UTC 2020-07-21 00:30:31

  11. Writing application : mkvmerge v48.0.0 ('Fortress Around Your Heart') 64-bit

  12. Writing library : libebml v1.4.0 + libmatroska v1.6.0

  13. Video

  14. ID : 1

  15. Format : HEVC

  16. Format/Info : High Efficiency Video Coding

  17. Format profile : Main [email protected]@High

  18. Codec ID : V_MPEGH/ISO/HEVC

  19. Duration : 1 h 1 min

  20. Bit rate : 11.8 Mb/s

  21. Width : 1 920 pixels

  22. Height : 1 080 pixels

  23. Display aspect ratio : 16:9

  24. Frame rate mode : Constant

  25. Frame rate : 23.976 (24000/1001/53354) FPS

  26. Color space : YUV

  27. Chroma subsampling : 4:2:0

  28. Bit depth : 10 bits

  29. Bits/(Pixel*Frame) : 0.237

  30. Stream size : 5.02 GiB (80%)

  31. Title : HEVC, [email protected]@High, 24/1.001 fps

  32. Writing library : x265 3.3+1-g396395b2b:[Windows][GCC 9.2.0][64 bit] 10bit

  33. Encoding settings : cpuid=533541111039 / frame-threads=3 / numa-pools=8 / wpp / pmode / pme / no-psnr / no-ssim / log-level=2 / input-csp=1 / input-res=1920x1080 / interlace=0 / total-frames=87816 / level-idc=51 / high-tier=1 / uhd-bd=0 / ref=5 / no-allow-non-conformance / no-repeat-headers / annexb / no-aud / no-hrd / info / hash=0 / no-temporal-layers / open-gop / min-keyint=24 / keyint=240 / gop-lookahead=0 / bframes=6 / b-adapt=2 / b-pyramid / bframe-bias=0 / rc-lookahead=40 / lookahead-slices=0 / NTMzNTQ=uuDQuD2mJt9fsCf / scenecut=40 / hist-scenecut=0 / radl=0 / no-splice / no-intra-refresh / ctu=32 / min-cu-size=8 / no-rect / no-amp / max-tu-size=32 / tu-inter-depth=3 / tu-intra-depth=3 / limit-tu=4 / rdoq-level=2 / dynamic-rd=0.00 / no-ssim-rd / signhide / no-tskip / nr-intra=0 / nr-inter=0 / no-constrained-intra / no-strong-intra-smoothing / max-merge=4 / limit-refs=1 / limit-modes / me=3 / subme=4 / merange=25 / temporal-mvp / no-frame-dup / no-hme / weightp / weightb / no-analyze-src-pics / deblock=-3:-3 / no-sao / no-sao-non-deblock / rd=6 / selective-sao=0 / no-early-skip / rskip / no-fast-intra / no-tskip-fast / no-cu-lossless / b-intra / no-splitrd-skip / rdpenalty=0 / psy-rd=2.00 / psy-rdoq=1.00 / no-rd-refine / no-lossless / cbqpoffs=0 / crqpoffs=0 / rc=crf / crf=17.0 / qcomp=0.65 / qpstep=4 / stats-write=0 / stats-read=0 / vbv-maxrate=80000 / vbv-bufsize=80000 / vbv-init=0.9 / crf-max=0.0 / crf-min=0.0 / ipratio=1.40 / pbratio=1.30 / aq-mode=2 / aq-strength=0.85 / cutree / zone-count=0 / no-strict-cbr / qg-size=32 / no-rc-grain / qpmax=69 / qpmin=0 / no-const-vbv / sar=1 / overscan=0 / videoformat=5 / range=0 / colorprim=1 / transfer=1 / colormatrix=1 / chromaloc=0 / display-window=0 / cll=0,0 / min-luma=0 / max-luma=1023 / log2-max-poc-lsb=8 / vui-timing-info / vui-hrd-info / slices=1 / no-opt-qp-pps / no-opt-ref-list-length-pps / no-multi-pass-opt-rps / scenecut-bias=0.05 / hist-threshold=0.01 / no-opt-cu-delta-qp / no-aq-motion / no-hdr10 / no-hdr10-opt / no-dhdr10-opt / no-idr-recovery-sei / analysis-reuse-level=0 / analysis-save-reuse-level=0 / analysis-load-reuse-level=0 / scale-factor=0 / refine-intra=0 / refine-inter=0 / refine-mv=1 / refine-ctu-distortion=0 / no-limit-sao / ctu-info=0 / no-lowpass-dct / refine-analysis-type=0 / copy-pic=1 / max-ausize-factor=1.0 / no-dynamic-refine / no-single-sei / no-hevc-aq / no-svt / no-field / qp-adaptation-range=1.00 / no-scenecut-aware-qpconformance-window-offsets / right=0 / bottom=0 / NTMzNTQ=

  34. Language : English

  35. Default : Yes

  36. Forced : No

  37. Color range : Limited

  38. Color primaries : BT.709

  39. Transfer characteristics : BT.709

  40. Matrix coefficients : BT.709

  41. Audio #1

  42. ID : 2

  43. Format : DTS XBR

  44. Format/Info : Digital Theater Systems

  45. Commercial name : DTS-HD High Resolution Audio

  46. Codec ID : A_DTS

  47. Duration : 1 h 1 min

  48. Bit rate mode : Constant

  49. Bit rate : 2 046 kb/s

  50. Channel(s) : 6 channels

  51. Channel layout : C L R Ls Rs LFE

  52. Sampling rate : 48.0 kHz

  53. Frame rate : 93.750 FPS (512 SPF)

  54. Bit depth : 16 bits

  55. Compression mode : Lossy

  56. Stream size : 893 MiB (14%)

  57. Title : English DTS Hi-Res 5.1 @ 2046 kbps

  58. Language : English

  59. Default : Yes

  60. Forced : No

  61. Audio #2

  62. ID : 3

  63. Format : AC-3

  64. Format/Info : Audio Coding 3

  65. Commercial name : Dolby Digital

  66. Codec ID : A_AC3

  67. Duration : 1 h 1 min

  68. Bit rate mode : Constant

  69. Bit rate : 384 kb/s

  70. Channel(s) : 2 channels

  71. Channel layout : L R

  72. Sampling rate : 48.0 kHz

  73. Frame rate : 31.250 FPS (1536 SPF)

  74. Compression mode : Lossy

  75. Stream size : 168 MiB (3%)

  76. Title : Cantonese Dolby Digital Audio 2.0 @ 384 kbps 原盘粤语

  77. Language : Chinese

  78. Service kind : Complete Main

  79. Default : No

  80. Forced : No

  81. Audio #3

  82. ID : 4

  83. Format : AC-3

  84. Format/Info : Audio Coding 3

  85. Commercial name : Dolby Digital

  86. Codec ID : A_AC3

  87. Duration : 1 h 1 min

  88. Bit rate mode : Constant

  89. Bit rate : 384 kb/s

  90. Channel(s) : 2 channels

  91. Channel layout : L R

  92. Sampling rate : 48.0 kHz

  93. Frame rate : 31.250 FPS (1536 SPF)

  94. Compression mode : Lossy

  95. Stream size : 168 MiB (3%)

  96. Title : Mandarin Dolby Digital Audio 2.0 @ 384 kbps 原盘国语

  97. Language : Chinese

  98. Service kind : Complete Main

  99. Default : No

  100. Forced : No

  101. Text #1

  102. ID : 5

  103. Format : PGS

  104. Codec ID : S_HDMV/PGS

  105. Codec ID/Info : Picture based subtitle format used on BDs/HD-DVDs

  106. Duration : 1 h 0 min

  107. Bit rate : 33.0 kb/s

  108. Count of elements : 1019

  109. Stream size : 14.2 MiB (0%)

  110. Title : Cht/SUP 原盘繁体(HK)

  111. Language : Chinese

  112. Default : No

  113. Forced : No

  114. Text #2

  115. ID : 6

  116. Format : PGS

  117. Codec ID : S_HDMV/PGS

  118. Codec ID/Info : Picture based subtitle format used on BDs/HD-DVDs

  119. Duration : 1 h 0 min

  120. Bit rate : 32.8 kb/s

  121. Count of elements : 1020

  122. Stream size : 14.1 MiB (0%)

  123. Title : Cht/SUP 原盘繁体(TW)

  124. Language : Chinese

  125. Default : No

  126. Forced : No

  127. Text #3

  128. ID : 7

  129. Format : PGS

  130. Codec ID : S_HDMV/PGS

  131. Codec ID/Info : Picture based subtitle format used on BDs/HD-DVDs

  132. Duration : 1 h 0 min

  133. Bit rate : 32.2 kb/s

  134. Count of elements : 1020

  135. Stream size : 13.8 MiB (0%)

  136. Title : Cht/SUP 原盘简体

  137. Language : Chinese

  138. Default : Yes

  139. Forced : No

  140. Text #4

  141. ID : 8

  142. Format : PGS

  143. Codec ID : S_HDMV/PGS

  144. Codec ID/Info : Picture based subtitle format used on BDs/HD-DVDs

  145. Duration : 1 h 0 min

  146. Bit rate : 35.4 kb/s

  147. Count of elements : 1023

  148. Stream size : 15.2 MiB (0%)

  149. Title : Eng/SUP

  150. Language : English

  151. Default : No

  152. Forced : No

  153. Menu

  154. 00:00:00.000 : en:第 01 章

  155. 00:11:06.082 : en:第 02 章

  156. 00:17:53.531 : en:第 03 章

  157. 00:28:27.581 : en:第 04 章

  158. 00:42:12.071 : en:第 05 章

  159. 00:49:58.704 : en:第 06 章


文件下载


除非特别注明,本文『生命[共10部合集][国粤英多音轨/简繁英字幕].BBC.Life.2009.EP01-EP10.BluRay.1080p.3Audio.DTS-HD.HR.5.1.x265.10bit-ALT 70』来源于互联网机器人自动抓取,非本站原创。 浮游电影网不对本文拥有版权,如有侵犯,请联系邮箱:fuyouu#yandex.com[#换成@]投诉。我们会在15个工作日内删除。 但烦请转载时请标明出处:“本文转载于『浮游电影网』,原文地址:https://www.fuyouu.com/22753.html

评论吧骚年!

发表你的见解   

昵称*

E-mail*(建议输入,以便收到博主回复的提示邮件)

验证码*

您可以使用eMule或eMule Mod(Windows)、aMule(Win、Linux、Mac)等软件下载eD2k链接。。
eMule收藏集(.emulecollection)文件是您选中的所有链接的列表文件。eMule可以直接下载它们。
按住SHIFT键选择可以选中多个选择框。
可用文件名和大小选择器来选择文件。
文件名选择器帮您根据文件名称或后缀来选择文件。不分大小写。
符号使用:
和:空格( )、+
不包含:-
或:|
转义:一对英文引号("");
匹配开头:^
匹配结尾:$
例如:
选中所有名称中包含有“eMule”或“0.49c”字眼,但不包含有“exe”字眼的:emule|0.49c -exe
选中所有名称的开头是“eMule”,结尾是“0.49c”的:^emule 0.49c$
选中所有名称中带有“eMule 0.49c”的(必须是“eMule 0.49c”,中间没有别的字符,不能是“eMule fake 0.49c”),需要转义:"emule 0.49c"
大小选择器帮您根据文件大小选择文件。