当前位置: 首页 >> 欧美电影 >> 铁血战士:猎物[简繁英特效字幕].Prey.2022.V1.WEB-DL.2160p.x265.Atmos.DDP5.1-BBQDDQ 15.04GB >> 正文

铁血战士:猎物[简繁英特效字幕].Prey.2022.V1.WEB-DL.2160p.x265.Atmos.DDP5.1-BBQDDQ 15.04GB

2022年08月07日 15:43:58     电影发布:来源于网络     电影分类:欧美电影     评论(0)    

◎标 题 铁血战士:猎物

◎译 名 铁血战士5 / 终极战士:兽猎者(台) / 铁血战士:骷髅 / Skulls / 铁血战士:狩猎追击(港)

◎片 名 Prey

◎年 代 2022

◎产 地 美国

◎类 别 动作 / 科幻 / 恐怖

◎语 言 英语

◎上映日期 2022-08-05(美国网络)

◎IMDb评分 6.4/10 (877人评价)

◎IMDb链接 https://www.imdb.com/title/tt11866324/

◎豆瓣链接 https://movie.douban.com/subject/35262994/

◎导 演 丹·特拉亨伯格 Dan Trachtenberg

◎演 员 安伯·明迪桑德 Amber Midthunder

戴恩·迪利格罗 Dane DiLiegro

斯蒂芬·马蒂亚斯 Stefany Mathias

斯托米·基普 Stormee Kipp

达寇塔·比弗 Dakota Beavers

杰夫·卡特 Jeff Cutter

◎简 介

本片以300年前的科曼奇族为背景,讲述了一个名叫纳鲁的年轻女子的故事,她是一位凶猛且技艺高超的战士。她在大平原上一些传奇的猎人阴影下长大,所以当危险威胁到她的营地时,她要保护她的族人。当她发现自己面对的猎物是一个高度进化的外星掠食者,且拥有先进的技术武器,一场恶战开始了!

  1. ##### MediaInfo ######

  2. General

  3. ID : 1 (0x1)

  4. Complete name : Prey.2022.V1.WEB-DL.2160p.X265.Atmos.DDP5.1-BBQDDQ

  5. Format : BDAV

  6. Format/Info : Blu-ray Video

  7. File size : 15.0 GiB

  8. Duration : 1 h 39 min

  9. Overall bit rate mode : Variable

  10. Overall bit rate : 21.6 Mb/s

  11. Maximum Overall bit rate : 35.5 Mb/s

  12. FileExtension_Invalid : m2ts mts ssif

  13. Video

  14. ID : 4113 (0x1011)

  15. Menu ID : 1 (0x1)

  16. Format : HEVC

  17. Format/Info : High Efficiency Video Coding

  18. Format profile : [email protected]@High

  19. Codec ID : 36

  20. Duration : 1 h 39 min

  21. Bit rate : 20.0 Mb/s

  22. Width : 3 840 pixels

  23. Height : 2 160 pixels

  24. Display aspect ratio : 16:9

  25. Frame rate : 24.000 FPS

  26. Color space : YUV

  27. Chroma subsampling : 4:2:0

  28. Bit depth : 8 bits

  29. Bits/(Pixel*Frame) : 0.100

  30. Stream size : 13.9 GiB (92%)

  31. Writing library : x265 3.5:[Linux][GCC 9.4.0][64 bit] 8bit+10bit+12bit

  32. Encoding settings : cpuid=53354186491111039 / frame-threads=1 / numa-pools=16 / wpp / no-pmode / no-pme / no-psnr / no-ssim / log-level=2 / input-csp=1 / input-res=3840x2160 / interlace=0 / total-frames=0 / level-idc=50 / high-tier=1 / uhd-bd=0 / ref=2 / no-allow-non-conformance / repeat-headers / annexb / no-aud / no-hrd / info / hash=0 / no-temporal-layers / no-open-gop / min-keyint=48 / keyint=48 / gop-lookahead=0 / bframes=4 / b-adapt=1 / b-pyramid / bframe-bias=0 / rc-lookahead=48 / lookahead-slices=8 / scenecut=0 / hist-scenecut=0 / radl=0 / no-splice / no-intra-refresh / ctu=32 / min-cu-size=8 / no-rect / no-amp / max-tu-size=16 / tu-inter-depth=2 / tu-intra-depth=2 / limit-tu=0 / rdoq-level=1 / dynamic-rd=0.00 / no-ssim-rd / signhide / no-tskip / nr-intra=0 / nr-inter=0 / no-constrained-intra / no-strong-intra-smoothing / max-merge=3 / limit-refs=1 / no-limit-modes / me=1 / subme=2 / merange=44 / temporal-mvp / no-frame-dup / no-hme / weightp / no-weightb / no-analyze-src-pics / deblock=0:0 / no-sao / no-sao-non-deblock / rd=4 / selective-sao=0 / early-skip / rskip / no-fast-intra / no-tskip-fast / no-cu-lossless / b-intra / no-splitrd-skip / rdpenalty=1 / psy-rd=1.60 / psy-rdoq=5.00 / no-rd-refine / no-lossless / cbqpoffs=0 / crqpoffs=0 / rc=abr / bitrate=20000 / qcomp=0.75 / qpstep=4 / stats-write=0 / stats-read=0 / vbv-maxrate=24000 / vbv-bufsize=40000 / vbv-init=0.9 / ipratio=1.40 / pbratio=1.30 / aq-mode=3 / aq-strength=1.00 / no-cutree / zone-count=0 / no-strict-cbr / qg-size=32 / no-rc-grain / qpmax=69 / qpmin=0 / no-const-vbv / sar=1 / overscan=0 / videoformat=5 / range=0 / colorprim=1 / transfer=1 / colormatrix=1 / chromaloc=0 / display-window=0 / cll=0,0 / min-luma=0 / max-luma=255 / log2-max-poc-lsb=8 / vui-timing-info / vui-hrd-info / slices=1 / no-opt-qp-pps / no-opt-ref-list-length-pps / no-multi-pass-opt-rps / scenecut-bias=0.00 / hist-threshold=0.01 / no-opt-cu-delta-qp / no-aq-motion / no-hdr10 / no-hdr10-opt / no-dhdr10-opt / no-idr-recovery-sei / analysis-reuse-level=0 / analysis-save-reuse-level=0 / analysis-load-reuse-level=0 / scale-factor=0 / refine-intra=0 / refine-inter=0 / refine-mv=1 / refine-ctu-distortion=0 / no-limit-sao / ctu-info=0 / no-lowpass-dct / refine-analysis-type=0 / copy-pic=1 / max-ausize-factor=1.0 / no-dynamic-refine / no-single-sei / no-hevc-aq / no-svt / no-field / qp-adaptation-range=1.00 / no-scenecut-aware-qpconformance-window-offsets / right=0 / bottom=0 / NTMzNTQ= / MTg2NDk=

  33. Language : English

  34. Color range : Limited

  35. Color primaries : BT.709

  36. Transfer characteristics : BT.709

  37. Matrix coefficients : BT.709

  38. Audio

  39. ID : 4352 (0x1100)

  40. Menu ID : 1 (0x1)

  41. Format : E-AC-3 JOC

  42. Format/Info : Enhanced AC-3 with Joint Object Coding

  43. Commercial name : Dolby Digital Plus with Dolby Atmos

  44. Codec ID : 132

  45. Duration : 1 h 39 min

  46. Bit rate mode : Constant

  47. Bit rate : 768 kb/s

  48. Channel(s) : 6 channels

  49. Channel layout : L R C LFE Ls Rs

  50. Sampling rate : 48.0 kHz

  51. Frame rate : 31.250 FPS (1536 SPF)

  52. Compression mode : Lossy

  53. Stream size : 547 MiB (4%)

  54. Language : English

  55. Service kind : Complete Main

  56. Complexity index : 16

  57. Number of dynamic objects : 15

  58. Bed channel count : 1 channel

  59. Bed channel configuration : LFE

  60. Text #1

  61. ID : 4608 (0x1200)

  62. Menu ID : 1 (0x1)

  63. Format : PGS

  64. Codec ID : 144

  65. Delay relative to video : 27 s 958 ms

  66. Language : English

  67. Text #2

  68. ID : 4609 (0x1201)

  69. Menu ID : 1 (0x1)

  70. Format : PGS

  71. Codec ID : 144

  72. Delay relative to video : 27 s 958 ms

  73. Language : English

  74. Text #3

  75. ID : 4610 (0x1202)

  76. Menu ID : 1 (0x1)

  77. Format : PGS

  78. Codec ID : 144

  79. Language : Chinese

  80. Text #4

  81. ID : 4611 (0x1203)

  82. Menu ID : 1 (0x1)

  83. Format : PGS

  84. Codec ID : 144

  85. Language : Chinese

  86. Text #5

  87. ID : 4612 (0x1204)

  88. Menu ID : 1 (0x1)

  89. Format : PGS

  90. Codec ID : 144

  91. Language : Chinese

  92. Text #6

  93. ID : 4613 (0x1205)

  94. Menu ID : 1 (0x1)

  95. Format : PGS

  96. Codec ID : 144

  97. Language : Chinese

  98. Text #7

  99. ID : 4614 (0x1206)

  100. Menu ID : 1 (0x1)

  101. Format : PGS

  102. Codec ID : 144

  103. Language : Chinese

  104. Text #8

  105. ID : 4615 (0x1207)

  106. Menu ID : 1 (0x1)

  107. Format : PGS

  108. Codec ID : 144

  109. Language : Chinese

  110. Text #9

  111. ID : 4616 (0x1208)

  112. Menu ID : 1 (0x1)

  113. Format : PGS

  114. Codec ID : 144

  115. Language : Chinese

  116. 62ee827d166d2.png



文件下载


除非特别注明,本文『铁血战士:猎物[简繁英特效字幕].Prey.2022.V1.WEB-DL.2160p.x265.Atmos.DDP5.1-BBQDDQ 15.04GB』来源于互联网机器人自动抓取,非本站原创。 浮游电影网不对本文拥有版权,如有侵犯,请联系邮箱:fuyouu#yandex.com[#换成@]投诉。我们会在15个工作日内删除。 但烦请转载时请标明出处:“本文转载于『浮游电影网』,原文地址:https://www.fuyouu.com/22751.html

评论吧骚年!

发表你的见解   

昵称*

E-mail*(建议输入,以便收到博主回复的提示邮件)

验证码*

您可以使用eMule或eMule Mod(Windows)、aMule(Win、Linux、Mac)等软件下载eD2k链接。。
eMule收藏集(.emulecollection)文件是您选中的所有链接的列表文件。eMule可以直接下载它们。
按住SHIFT键选择可以选中多个选择框。
可用文件名和大小选择器来选择文件。
文件名选择器帮您根据文件名称或后缀来选择文件。不分大小写。
符号使用:
和:空格( )、+
不包含:-
或:|
转义:一对英文引号("");
匹配开头:^
匹配结尾:$
例如:
选中所有名称中包含有“eMule”或“0.49c”字眼,但不包含有“exe”字眼的:emule|0.49c -exe
选中所有名称的开头是“eMule”,结尾是“0.49c”的:^emule 0.49c$
选中所有名称中带有“eMule 0.49c”的(必须是“eMule 0.49c”,中间没有别的字符,不能是“eMule fake 0.49c”),需要转义:"emule 0.49c"
大小选择器帮您根据文件大小选择文件。