当前位置: 首页 >> 港台电影 >> 壮志雄心[国语音轨/中文字幕].Thank.You.Sir.1989.CHINESE.1080p.BluRay.x264.FLAC.2.0-ADE 9.16GB >> 正文

壮志雄心[国语音轨/中文字幕].Thank.You.Sir.1989.CHINESE.1080p.BluRay.x264.FLAC.2.0-ADE 9.16GB

2022年08月07日 15:42:25     电影发布:来源于网络     电影分类:港台电影     评论(0)    

壮志雄心[国语音轨/中文字幕].Thank.You.Sir.1989.CHINESE.1080p.BluRay.x264.FLAC.2.0 ADE 9.16GB  港台电影  第1张

◎译 名 壮志雄心 / Thank You Sir / Zhuang zhi xiong xin

◎片 名 壯志雄心

◎年 代 1989

◎产 地 中国香港

◎类 别 剧情

◎语 言 粤语

◎上映日期 1989-08-19(中国香港)

◎IMDb链接 https://www.imdb.com/title/tt0098712/

◎豆瓣评分 7.0/10 (612人评价)

◎豆瓣链接 https://movie.douban.com/subject/3178147/

◎片 长 91分钟

◎导 演 黎继明 Kai Ming Lai (id:1315601)

◎编 剧 冯瑞熊 James Fung (id:1378957)

黄柏文 Parkman Wong (id:1322042)

◎演 员 李修贤 Danny Lee (id:1025452)

张兆 (id:1474635)

洪同剑 Tung-Kim Hung (id:1418745)

伍国健 Kwok-kin Ng (id:1418713)

李剑忠 Kim Chung Lee (id:1417559)

葛英健 Kent Kot Ying-Kin (id:1417523)

谢伟杰 Wai-Kit Tse (id:1416431)

吴少雄 Alan Ng (id:1366356)

张家辉 Nick Cheung (id:1037273)

张兆 (id:1474653)

吴少雄 Alan Ng (id:1366356)

汤宝生 Bob Thompson (id:1299170)

◎简 介

李鹰是一个刚直,有正义感的刑警总督察。因他屡建奇功,上司荐升他为警察少年训练学校副校长。李甫入学校,发现学员是一群有潜质,但野性未驯的少年。于是李特别调派女督察唐淑仪进入警校,以爱心关怀及严格训练,将不羁的学员导入正轨。

◎获奖情况 (共1项)

第26届台北金马影展 (1989)

金马奖 最佳男配角(提名)

└──陈国邦 (id:1280440)

  1. Video

  2. ID : 1

  3. Format : AVC

  4. Format/Info : Advanced Video Codec

  5. Format profile : [email protected]

  6. Format settings : CABAC / 4 Ref Frames

  7. Format settings, CABAC : Yes

  8. Format settings, Reference frames : 4 frames

  9. Codec ID : V_MPEG4/ISO/AVC

  10. Duration : 1 h 36 min

  11. Bit rate : 12.6 Mb/s

  12. Width : 1 920 pixels

  13. Height : 1 080 pixels

  14. Display aspect ratio : 16:9

  15. Frame rate mode : Constant

  16. Frame rate : 24.000 FPS

  17. Color space : YUV

  18. Chroma subsampling : 4:2:0

  19. Bit depth : 8 bits

  20. Scan type : Progressive

  21. Bits/(Pixel*Frame) : 0.253

  22. Stream size : 8.46 GiB (92%)

  23. Writing library : x264 core 161 r3018+53 18a1d6c t_mod_New [(8 & 10)[email protected] X86_64]

  24. Encoding settings : cabac=1 / ref=4 / deblock=1:-3:-3 / analyse=0x3:0x133 / me=umh / subme=11 / psy=1 / fade_compensate=0.00 / psy_rd=1.00:0.00 / mixed_ref=1 / me_range=48 / chroma_me=1 / trellis=2 / 8x8dct=1 / cqm=0 / deadzone=21,11 / fast_pskip=0 / chroma_qp_offset=-3 / threads=24 / lookahead_threads=6 / sliced_threads=0 / nr=0 / decimate=0 / interlaced=0 / NTMzNTQ= / bluray_compat=0 / constrained_intra=0 / fgo=0 / bframes=11 / b_pyramid=2 / b_adapt=2 / b_bias=0 / direct=3 / weightb=1 / open_gop=0 / weightp=2 / keyint=240 / keyint_min=1 / NTMzNTQ=uuDQuD2mJt9fsCf / scenecut=40 / intra_refresh=0 / rc_lookahead=72 / rc=crf / mbtree=0 / crf=20.0000 / qcomp=0.65 / qpmin=0:0:0 / qpmax=69:69:69 / qpstep=4 / vbv_maxrate=62500 / vbv_bufsize=78125 / crf_max=0.0 / nal_hrd=none / filler=0 / NTMzNTQ=LmsMAP37EqsCpk / ip_ratio=1.40 / pb_ratio=1.30 / aq=3:0.80 / aq-sensitivity=10.00 / aq-factor=1.00:1.00:1.00 / aq2=0 / aq3=0

  25. Default : Yes

  26. Forced : No


  27. Audio #1

  28. ID : 2

  29. Format : FLAC

  30. Format/Info : Free Lossless Audio Codec

  31. Codec ID : A_FLAC

  32. Duration : 1 h 36 min

  33. Bit rate mode : Variable

  34. Bit rate : 558 kb/s

  35. Channel(s) : 2 channels

  36. Channel layout : L R

  37. Sampling rate : 48.0 kHz

  38. Frame rate : 11.719 FPS (4096 SPF)

  39. Bit depth : 16 bits

  40. Compression mode : Lossless

  41. Stream size : 383 MiB (4%)

  42. Title : Cantonese

  43. Writing library : libFLAC 1.2.1 (UTC 2007-09-17)

  44. Language : Chinese

  45. Default : Yes

  46. Forced : No


  47. Audio #2

  48. ID : 3

  49. Format : FLAC

  50. Format/Info : Free Lossless Audio Codec

  51. Codec ID : A_FLAC

  52. Duration : 1 h 36 min

  53. Bit rate mode : Variable

  54. Bit rate : 401 kb/s

  55. Channel(s) : 2 channels

  56. Channel layout : L R

  57. Sampling rate : 48.0 kHz

  58. Frame rate : 11.719 FPS (4096 SPF)

  59. Bit depth : 16 bits

  60. Compression mode : Lossless

  61. Stream size : 275 MiB (3%)

  62. Title : Mandarin

  63. Writing library : libFLAC 1.2.1 (UTC 2007-09-17)

  64. Language : Chinese

  65. Default : No

  66. Forced : No


  67. Text #1

  68. ID : 4

  69. Format : UTF-8

  70. Codec ID : S_TEXT/UTF8

  71. Codec ID/Info : UTF-8 Plain Text

  72. Duration : 1 h 31 min

  73. Bit rate : 60 b/s

  74. Frame rate : 0.304 FPS

  75. Count of elements : 1676

  76. Stream size : 40.6 KiB (0%)

  77. Language : English

  78. Default : Yes

  79. Forced : No


  80. Text #2

  81. ID : 5

  82. Format : PGS

  83. Muxing mode : zlib

  84. Codec ID : S_HDMV/PGS

  85. Codec ID/Info : Picture based subtitle format used on BDs/HD-DVDs

  86. Duration : 1 h 32 min

  87. Bit rate : 38.3 kb/s

  88. Frame rate : 0.727 FPS

  89. Count of elements : 4035

  90. Stream size : 25.3 MiB (0%)

  91. Title : Mandarin chs

  92. Language : Chinese

  93. Default : No

  94. Forced : No


  95. Text #3

  96. ID : 6

  97. Format : PGS

  98. Muxing mode : zlib

  99. Codec ID : S_HDMV/PGS

  100. Codec ID/Info : Picture based subtitle format used on BDs/HD-DVDs

  101. Duration : 1 h 32 min

  102. Bit rate : 38.7 kb/s

  103. Frame rate : 0.727 FPS

  104. Count of elements : 4035

  105. Stream size : 25.6 MiB (0%)

  106. Title : Mandarin cht

  107. Language : Chinese

  108. Default : No

  109. Forced : No


  110. Text #4

  111. ID : 7

  112. Format : PGS

  113. Muxing mode : zlib

  114. Codec ID : S_HDMV/PGS

  115. Codec ID/Info : Picture based subtitle format used on BDs/HD-DVDs

  116. Duration : 1 h 33 min

  117. Bit rate : 37.2 kb/s

  118. Frame rate : 0.538 FPS

  119. Count of elements : 3009

  120. Stream size : 24.8 MiB (0%)

  121. Title : Cantonese chs

  122. Language : Chinese

  123. Default : No

  124. Forced : No


  125. Text #5

  126. ID : 8

  127. Format : PGS

  128. Muxing mode : zlib

  129. Codec ID : S_HDMV/PGS

  130. Codec ID/Info : Picture based subtitle format used on BDs/HD-DVDs

  131. Duration : 1 h 33 min

  132. Bit rate : 37.6 kb/s

  133. Frame rate : 0.538 FPS

  134. Count of elements : 3009

  135. Stream size : 25.0 MiB (0%)

  136. Title : Cantonese cht

  137. Language : Chinese

  138. Default : No

  139. Forced : No


  140. Text #6

  141. ID : 9

  142. ID in the original source medium : 4610 (0x1202)

  143. Format : PGS

  144. Muxing mode : zlib

  145. Codec ID : S_HDMV/PGS

  146. Codec ID/Info : Picture based subtitle format used on BDs/HD-DVDs

  147. Duration : 1 h 31 min

  148. Bit rate : 41.0 kb/s

  149. Frame rate : 0.628 FPS

  150. Count of elements : 3459

  151. Stream size : 26.9 MiB (0%)

  152. Title : eng

  153. Language : English

  154. Default : No

  155. Forced : No

  156. Original source medium : Blu-ray


  157. Menu

  158. 00:00:00.000 : en:Chapter 01

  159. 00:06:19.916 : en:Chapter 02

  160. 00:11:56.416 : en:Chapter 03

  161. 00:19:45.708 : en:Chapter 04

  162. 00:29:52.708 : en:Chapter 05

  163. 00:40:09.166 : en:Chapter 06

  164. 00:52:25.958 : en:Chapter 07

  165. 01:00:22.958 : en:Chapter 08

  166. 01:06:18.041 : en:Chapter 09

  167. 01:12:27.125 : en:Chapter 10

  168. 01:21:56.041 : en:Chapter 11

  169. 01:27:16.166 : en:Chapter 12

复制代码

壮志雄心[国语音轨/中文字幕].Thank.You.Sir.1989.CHINESE.1080p.BluRay.x264.FLAC.2.0 ADE 9.16GB  港台电影  第2张 壮志雄心[国语音轨/中文字幕].Thank.You.Sir.1989.CHINESE.1080p.BluRay.x264.FLAC.2.0 ADE 9.16GB  港台电影  第3张 壮志雄心[国语音轨/中文字幕].Thank.You.Sir.1989.CHINESE.1080p.BluRay.x264.FLAC.2.0 ADE 9.16GB  港台电影  第4张



文件下载


除非特别注明,本文『壮志雄心[国语音轨/中文字幕].Thank.You.Sir.1989.CHINESE.1080p.BluRay.x264.FLAC.2.0-ADE 9.16GB』来源于互联网机器人自动抓取,非本站原创。 浮游电影网不对本文拥有版权,如有侵犯,请联系邮箱:fuyouu#yandex.com[#换成@]投诉。我们会在15个工作日内删除。 但烦请转载时请标明出处:“本文转载于『浮游电影网』,原文地址:https://www.fuyouu.com/22749.html

评论吧骚年!

发表你的见解   

昵称*

E-mail*(建议输入,以便收到博主回复的提示邮件)

验证码*

您可以使用eMule或eMule Mod(Windows)、aMule(Win、Linux、Mac)等软件下载eD2k链接。。
eMule收藏集(.emulecollection)文件是您选中的所有链接的列表文件。eMule可以直接下载它们。
按住SHIFT键选择可以选中多个选择框。
可用文件名和大小选择器来选择文件。
文件名选择器帮您根据文件名称或后缀来选择文件。不分大小写。
符号使用:
和:空格( )、+
不包含:-
或:|
转义:一对英文引号("");
匹配开头:^
匹配结尾:$
例如:
选中所有名称中包含有“eMule”或“0.49c”字眼,但不包含有“exe”字眼的:emule|0.49c -exe
选中所有名称的开头是“eMule”,结尾是“0.49c”的:^emule 0.49c$
选中所有名称中带有“eMule 0.49c”的(必须是“eMule 0.49c”,中间没有别的字符,不能是“eMule fake 0.49c”),需要转义:"emule 0.49c"
大小选择器帮您根据文件大小选择文件。