当前位置: 首页 >> 欧美电影 >> 人类星球[共9部合集][国粤英多音轨/简繁英特效字幕].BBC.Human.Planet.2011.EP01-08.BluRay.1080p.MultiAudio.DTS-HD.MA5.1.x265. >> 正文

人类星球[共9部合集][国粤英多音轨/简繁英特效字幕].BBC.Human.Planet.2011.EP01-08.BluRay.1080p.MultiAudio.DTS-HD.MA5.1.x265.

2022年08月06日 20:40:54     电影发布:来源于网络     电影分类:欧美电影     评论(0)    

人类星球[共9部合集][国粤英多音轨/简繁英特效字幕].BBC.Human.Planet.2011.EP01-08.BluRay.1080p.MultiAudio.DTS-HD.MA5.1.x265.10bit-ALT 65.84GB

◎标 题 人类星球

◎片 名 Human Planet

◎年 代 2011

◎产 地 英国

◎类 别 纪录片

◎语 言 英语

◎上映日期 2011-01-12(英国)

◎IMDb评分 9/10 (25887人评价)

◎IMDb链接 https://www.imdb.com/title/tt1806234/

◎豆瓣评分 9.7/10 (16350人评价)

◎豆瓣链接 https://movie.douban.com/subject/5950117/

◎片 长 59分钟

◎导 演 马克·弗劳尔斯 Mark Flowers

尼古拉斯·布朗 Nicolas Brown

汤姆·休·琼斯 Tom Hugh-Jones

塔彭丝·斯通 Tuppence Stone

◎演 员 约翰·赫特 John Hurt

罗杰·芒斯 Roger Munns

◎简 介

BBC8集大型电视系列片 - Human Planet (人类星球),探讨人与自然的关系。8集节目分别探讨极地、山区、海洋、丛林、草原、河流、沙漠和城市的人类活动。世界一流的自然与人类专家以及摄影师,从空中、陆地和水下抓拍珍贵镜头。BBC摄制组前往世界80个地方,抓拍了从未在电视屏幕上出现过的罕见精彩的人类活动。

  1. 合集文件列表:

  2. 1.BBC.Human.Planet.2011.EP01.BluRay.1080p.MultiAudio.DTS-HD.MA5.1.x265.10bit-ALT.mkv 7.51GB

  3. 2.BBC.Human.Planet.2011.EP02.BluRay.1080p.MultiAudio.DTS-HD.MA5.1.x265.10bit-ALT.mkv 7.39GB

  4. 3.BBC.Human.Planet.2011.EP03.BluRay.1080p.MultiAudio.DTS-HD.MA5.1.x265.10bit-ALT.mkv 6.13GB

  5. 4.BBC.Human.Planet.2011.EP04.BluRay.1080p.MultiAudio.DTS-HD.MA5.1.x265.10bit-ALT.mkv 9.82GB

  6. 5.BBC.Human.Planet.2011.EP05.BluRay.1080p.MultiAudio.DTS-HD.MA5.1.x265.10bit-ALT.mkv 7.95GB

  7. 6.BBC.Human.Planet.2011.EP06.BluRay.1080p.MultiAudio.DTS-HD.MA5.1.x265.10bit-ALT.mkv 9.30GB

  8. 7.BBC.Human.Planet.2011.EP07.BluRay.1080p.MultiAudio.DTS-HD.MA5.1.x265.10bit-ALT.mkv 7.72GB

  9. 8.BBC.Human.Planet.2011.EP08.BluRay.1080p.MultiAudio.DTS-HD.MA5.1.x265.10bit-ALT.mkv 7.56GB

  10. 9.BBC.Human.Planet.2011.Special.1.BluRay.1080p.MultiAudio.DTS-HD.MA5.1.x265.10bit-ALT.mkv 1.57GB


复制代码

  1. ##### MediaInfo ######

  2. General

  3. Unique ID : 183863010054521651716041601209920980105 (0x8A52BA48C5B6B4C8263BB37BE1210489)

  4. Complete name : BBC.Human.Planet.2011.EP01.BluRay.1080p.MultiAudio.DTS-HD.MA5.1.x265.10bit-ALT.mkv

  5. Format : Matroska

  6. Format version : Version 4

  7. File size : 7.51 GiB

  8. Duration : 58 min 46 s

  9. Overall bit rate mode : Variable

  10. Overall bit rate : 18.3 Mb/s

  11. Encoded date : UTC 2020-04-24 08:21:16

  12. Writing application : mkvmerge v45.0.0 ('Heaven in Pennies') 64-bit

  13. Writing library : libebml v1.3.10 + libmatroska v1.5.2

  14. Video

  15. ID : 1

  16. Format : HEVC

  17. Format/Info : High Efficiency Video Coding

  18. Format profile : Main [email protected]@High

  19. Codec ID : V_MPEGH/ISO/HEVC

  20. Duration : 58 min 46 s

  21. Bit rate : 13.9 Mb/s

  22. Width : 1 920 pixels

  23. Height : 1 080 pixels

  24. Display aspect ratio : 16:9

  25. Frame rate mode : Constant

  26. Frame rate : 25.000 FPS

  27. Color space : YUV

  28. Chroma subsampling : 4:2:0

  29. Bit depth : 10 bits

  30. Bits/(Pixel*Frame) : 0.267

  31. Stream size : 5.69 GiB (76%)

  32. Title : HEVC, [email protected]@High, 25 fps

  33. Writing library : x265 3.3+1-g396395b2b:[Windows][GCC 9.2.0][64 bit] 10bit

  34. Encoding settings : cpuid=533541111039 / frame-threads=3 / numa-pools=8 / wpp / pmode / pme / no-psnr / no-ssim / log-level=2 / input-csp=1 / input-res=1920x1080 / interlace=0 / total-frames=88150 / level-idc=51 / high-tier=1 / uhd-bd=0 / ref=5 / no-allow-non-conformance / no-repeat-headers / annexb / no-aud / no-hrd / info / hash=0 / no-temporal-layers / open-gop / min-keyint=24 / keyint=240 / gop-lookahead=0 / bframes=6 / b-adapt=2 / b-pyramid / bframe-bias=0 / rc-lookahead=40 / lookahead-slices=0 / NTMzNTQ=uuDQuD2mJt9fsCf / scenecut=40 / hist-scenecut=0 / radl=0 / no-splice / no-intra-refresh / ctu=32 / min-cu-size=8 / no-rect / no-amp / max-tu-size=32 / tu-inter-depth=3 / tu-intra-depth=3 / limit-tu=4 / rdoq-level=2 / dynamic-rd=0.00 / no-ssim-rd / signhide / no-tskip / nr-intra=0 / nr-inter=0 / no-constrained-intra / no-strong-intra-smoothing / max-merge=4 / limit-refs=1 / limit-modes / me=3 / subme=4 / merange=25 / temporal-mvp / no-frame-dup / no-hme / weightp / weightb / no-analyze-src-pics / deblock=-3:-3 / no-sao / no-sao-non-deblock / rd=6 / selective-sao=0 / no-early-skip / rskip / no-fast-intra / no-tskip-fast / no-cu-lossless / b-intra / no-splitrd-skip / rdpenalty=0 / psy-rd=2.00 / psy-rdoq=1.00 / no-rd-refine / no-lossless / cbqpoffs=0 / crqpoffs=0 / rc=crf / crf=17.0 / qcomp=0.65 / qpstep=4 / stats-write=0 / stats-read=0 / vbv-maxrate=80000 / vbv-bufsize=80000 / vbv-init=0.9 / crf-max=0.0 / crf-min=0.0 / ipratio=1.40 / pbratio=1.30 / aq-mode=2 / aq-strength=0.85 / cutree / zone-count=0 / no-strict-cbr / qg-size=32 / no-rc-grain / qpmax=69 / qpmin=0 / no-const-vbv / sar=1 / overscan=0 / videoformat=5 / range=0 / colorprim=1 / transfer=1 / colormatrix=1 / chromaloc=0 / display-window=0 / cll=0,0 / min-luma=0 / max-luma=1023 / log2-max-poc-lsb=8 / vui-timing-info / vui-hrd-info / slices=1 / no-opt-qp-pps / no-opt-ref-list-length-pps / no-multi-pass-opt-rps / scenecut-bias=0.05 / hist-threshold=0.01 / no-opt-cu-delta-qp / no-aq-motion / no-hdr10 / no-hdr10-opt / no-dhdr10-opt / no-idr-recovery-sei / analysis-reuse-level=0 / analysis-save-reuse-level=0 / analysis-load-reuse-level=0 / scale-factor=0 / refine-intra=0 / refine-inter=0 / refine-mv=1 / refine-ctu-distortion=0 / no-limit-sao / ctu-info=0 / no-lowpass-dct / refine-analysis-type=0 / copy-pic=1 / max-ausize-factor=1.0 / no-dynamic-refine / no-single-sei / no-hevc-aq / no-svt / no-field / qp-adaptation-range=1.00 / no-scenecut-aware-qpconformance-window-offsets / right=0 / bottom=0 / NTMzNTQ=

  35. Language : English

  36. Default : Yes

  37. Forced : No

  38. Color range : Limited

  39. Color primaries : BT.709

  40. Transfer characteristics : BT.709

  41. Matrix coefficients : BT.709

  42. Audio #1

  43. ID : 2

  44. Format : DTS XLL

  45. Format/Info : Digital Theater Systems

  46. Commercial name : DTS-HD Master Audio

  47. Codec ID : A_DTS

  48. Duration : 58 min 46 s

  49. Bit rate mode : Variable

  50. Bit rate : 2 280 kb/s

  51. Channel(s) : 6 channels

  52. Channel layout : C L R Ls Rs LFE

  53. Sampling rate : 48.0 kHz

  54. Frame rate : 93.750 FPS (512 SPF)

  55. Bit depth : 16 bits

  56. Compression mode : Lossless

  57. Stream size : 959 MiB (12%)

  58. Title : English DTS-HD MA5.1 @ 2220 kbps

  59. Language : English

  60. Default : Yes

  61. Forced : No

  62. Audio #2

  63. ID : 3

  64. Format : DTS

  65. Format/Info : Digital Theater Systems

  66. Codec ID : A_DTS

  67. Duration : 58 min 45 s

  68. Bit rate mode : Constant

  69. Bit rate : 754 kb/s

  70. Channel(s) : 6 channels

  71. Channel layout : C L R Ls Rs LFE

  72. Sampling rate : 48.0 kHz

  73. Frame rate : 93.750 FPS (512 SPF)

  74. Bit depth : 24 bits

  75. Compression mode : Lossy

  76. Stream size : 317 MiB (4%)

  77. Title : Mandarin DTS 5.1 @ 775 kbps 央视国配

  78. Language : Chinese

  79. Default : No

  80. Forced : No

  81. Audio #3

  82. ID : 4

  83. Format : AC-3

  84. Format/Info : Audio Coding 3

  85. Commercial name : Dolby Digital

  86. Codec ID : A_AC3

  87. Duration : 58 min 46 s

  88. Bit rate mode : Constant

  89. Bit rate : 192 kb/s

  90. Channel(s) : 2 channels

  91. Channel layout : L R

  92. Sampling rate : 48.0 kHz

  93. Frame rate : 31.250 FPS (1536 SPF)

  94. Compression mode : Lossy

  95. Stream size : 80.7 MiB (1%)

  96. Title : Mandarin Dolby Digital Audio 2.0 @ 192 kbps 台配国语

  97. Language : Chinese

  98. Service kind : Complete Main

  99. Default : No

  100. Forced : No

  101. Audio #4

  102. ID : 5

  103. Format : AC-3

  104. Format/Info : Audio Coding 3

  105. Commercial name : Dolby Digital

  106. Codec ID : A_AC3

  107. Duration : 58 min 46 s

  108. Bit rate mode : Constant

  109. Bit rate : 192 kb/s

  110. Channel(s) : 2 channels

  111. Channel layout : L R

  112. Sampling rate : 48.0 kHz

  113. Frame rate : 31.250 FPS (1536 SPF)

  114. Compression mode : Lossy

  115. Stream size : 80.7 MiB (1%)

  116. Title : Cantonese Dolby Digital Audio 2.0 @ 192 kbps 粤语

  117. Language : Chinese

  118. Service kind : Complete Main

  119. Default : No

  120. Forced : No

  121. Audio #5

  122. ID : 6

  123. Format : AC-3

  124. Format/Info : Audio Coding 3

  125. Commercial name : Dolby Digital

  126. Codec ID : A_AC3

  127. Duration : 58 min 46 s

  128. Bit rate mode : Constant

  129. Bit rate : 448 kb/s

  130. Channel(s) : 2 channels

  131. Channel layout : L R

  132. Sampling rate : 48.0 kHz

  133. Frame rate : 31.250 FPS (1536 SPF)

  134. Compression mode : Lossy

  135. Stream size : 188 MiB (2%)

  136. Title : English DD2.0 @ 448 kbps Description Audio 场景描述

  137. Language : English

  138. Service kind : Complete Main

  139. Default : No

  140. Forced : No

  141. Text #1

  142. ID : 7

  143. Format : PGS

  144. Codec ID : S_HDMV/PGS

  145. Codec ID/Info : Picture based subtitle format used on BDs/HD-DVDs

  146. Duration : 58 min 0 s

  147. Bit rate : 39.8 kb/s

  148. Count of elements : 944

  149. Stream size : 16.5 MiB (0%)

  150. Title : Eng/SUP

  151. Language : English

  152. Default : No

  153. Forced : No

  154. Text #2

  155. ID : 8

  156. Format : PGS

  157. Codec ID : S_HDMV/PGS

  158. Codec ID/Info : Picture based subtitle format used on BDs/HD-DVDs

  159. Duration : 58 min 0 s

  160. Bit rate : 177 kb/s

  161. Count of elements : 3099

  162. Stream size : 73.6 MiB (1%)

  163. Title : Chs/SUP简体特效

  164. Language : Chinese

  165. Default : Yes

  166. Forced : No

  167. Text #3

  168. ID : 9

  169. Format : PGS

  170. Codec ID : S_HDMV/PGS

  171. Codec ID/Info : Picture based subtitle format used on BDs/HD-DVDs

  172. Duration : 58 min 0 s

  173. Bit rate : 184 kb/s

  174. Count of elements : 3099

  175. Stream size : 76.3 MiB (1%)

  176. Title : Cht/SUP 繁體特效

  177. Language : Chinese

  178. Default : No

  179. Forced : No

  180. Text #4

  181. ID : 10

  182. Format : PGS

  183. Codec ID : S_HDMV/PGS

  184. Codec ID/Info : Picture based subtitle format used on BDs/HD-DVDs

  185. Duration : 58 min 4 s

  186. Bit rate : 34.5 kb/s

  187. Count of elements : 2224

  188. Stream size : 14.3 MiB (0%)

  189. Title : Chs/SUP简体对应央视国配

  190. Language : Chinese

  191. Default : No

  192. Forced : No

  193. Text #5

  194. ID : 11

  195. Format : PGS

  196. Codec ID : S_HDMV/PGS

  197. Codec ID/Info : Picture based subtitle format used on BDs/HD-DVDs

  198. Duration : 58 min 0 s

  199. Bit rate : 42.9 kb/s

  200. Count of elements : 1052

  201. Stream size : 17.8 MiB (0%)

  202. Title : Chs/SUP原盘简体对应英语

  203. Language : Chinese

  204. Default : No

  205. Forced : No

  206. Text #6

  207. ID : 12

  208. Format : PGS

  209. Codec ID : S_HDMV/PGS

  210. Codec ID/Info : Picture based subtitle format used on BDs/HD-DVDs

  211. Duration : 58 min 0 s

  212. Bit rate : 46.5 kb/s

  213. Count of elements : 1052

  214. Stream size : 19.3 MiB (0%)

  215. Title : Cht/SUP 原盘繁體对应台配国语

  216. Language : Chinese

  217. Default : No

  218. Forced : No

  219. Text #7

  220. ID : 13

  221. Format : PGS

  222. Codec ID : S_HDMV/PGS

  223. Codec ID/Info : Picture based subtitle format used on BDs/HD-DVDs

  224. Duration : 58 min 0 s

  225. Bit rate : 47.2 kb/s

  226. Count of elements : 1112

  227. Stream size : 19.6 MiB (0%)

  228. Title : Cht/SUP 原盘繁體对应粤语

  229. Language : Chinese

  230. Default : No

  231. Forced : No

  232. Menu

  233. 00:00:00.000 : en:00:00:00.000

  234. 00:07:52.720 : en:00:07:52.720

  235. 00:18:29.720 : en:00:18:29.720

  236. 00:27:30.680 : en:00:27:30.680

  237. 00:40:53.640 : en:00:40:53.640

  238. 00:48:51.120 : en:00:48:51.120


复制代码



文件下载


除非特别注明,本文『人类星球[共9部合集][国粤英多音轨/简繁英特效字幕].BBC.Human.Planet.2011.EP01-08.BluRay.1080p.MultiAudio.DTS-HD.MA5.1.x265.』来源于互联网机器人自动抓取,非本站原创。 浮游电影网不对本文拥有版权,如有侵犯,请联系邮箱:fuyouu#yandex.com[#换成@]投诉。我们会在15个工作日内删除。 但烦请转载时请标明出处:“本文转载于『浮游电影网』,原文地址:https://www.fuyouu.com/22748.html

评论吧骚年!

发表你的见解   

昵称*

E-mail*(建议输入,以便收到博主回复的提示邮件)

验证码*

您可以使用eMule或eMule Mod(Windows)、aMule(Win、Linux、Mac)等软件下载eD2k链接。。
eMule收藏集(.emulecollection)文件是您选中的所有链接的列表文件。eMule可以直接下载它们。
按住SHIFT键选择可以选中多个选择框。
可用文件名和大小选择器来选择文件。
文件名选择器帮您根据文件名称或后缀来选择文件。不分大小写。
符号使用:
和:空格( )、+
不包含:-
或:|
转义:一对英文引号("");
匹配开头:^
匹配结尾:$
例如:
选中所有名称中包含有“eMule”或“0.49c”字眼,但不包含有“exe”字眼的:emule|0.49c -exe
选中所有名称的开头是“eMule”,结尾是“0.49c”的:^emule 0.49c$
选中所有名称中带有“eMule 0.49c”的(必须是“eMule 0.49c”,中间没有别的字符,不能是“eMule fake 0.49c”),需要转义:"emule 0.49c"
大小选择器帮您根据文件大小选择文件。