当前位置: 首页 >> 动画电影 >> 忍者神龟:崛起[中文字幕].Rise.of.the.Teenage.Mutant.Ninja.Turtles.The.Movie.2022.1080p.NF.WEBRip.DDP5.1.x264-SM >> 正文

忍者神龟:崛起[中文字幕].Rise.of.the.Teenage.Mutant.Ninja.Turtles.The.Movie.2022.1080p.NF.WEBRip.DDP5.1.x264-SM

2022年08月05日 16:48:54     电影发布:来源于网络     电影分类:动画电影     评论(0)    

忍者神龟:崛起[中文字幕].Rise.of.the.Teenage.Mutant.Ninja.Turtles.The.Movie.2022.1080p.NF.WEBRip.DDP5.1.x264-SMURF 2.52GB

忍者神龟:崛起[中文字幕].Rise.of.the.Teenage.Mutant.Ninja.Turtles.The.Movie.2022.1080p.NF.WEBRip.DDP5.1.x264 SM  动画电影  第1张

忍者神龟:崛起[中文字幕].Rise.of.the.Teenage.Mutant.Ninja.Turtles.The.Movie.2022.1080p.NF.WEBRip.DDP5.1.x264 SM  动画电影  第2张

◎译 名 忍者神龟:崛起 / 忍者龜之風雲再起電影版

◎片 名 Rise of the Teenage Mutant Ninja Turtles: The Movie

◎年 代 2022

◎产 地 美国

◎类 别 动画 / 奇幻 / 冒险

◎语 言 英语

◎上映日期 2022-08-05(美国)

◎IMDb链接 https://www.imdb.com/title/tt9784708/

◎豆瓣链接 https://movie.douban.com/subject/35125466/

◎编 剧 谢里·斯托纳 Sherri Stoner (id:1009684)

迪安娜·奥利弗 Deanna Oliver (id:1333287)

Tony Gama-Lobo Tony Gama-Lobo (id:1305885)

Rebecca May Rebecca May (id:1305939)

◎演 员 本·施瓦茨 Ben Schwartz (id:1314604)

奥玛·本森·米勒 Omar Benson Miller (id:1027343)

布兰登·史密斯 Brandon Smith (id:1156047)

乔什·布雷纳 Josh Brener (id:1339617)

艾瑞克·鲍扎 Eric Bauza (id:1347752)

◎简 介

2044年的纽约,大反派朗格勾结外星恶势力试图毁灭地球,大量外星人通过神秘传送门入侵,将城市化为灰烬。忍者神龟们虽负隅顽抗仍不敌敌人攻势,死伤惨重。怀抱着忍者最强武器——希望,忍者神龟们决定回到过去时空,找到开启传送门的钥匙,阻止朗格,恢复世界和平。李奥纳多的弟子凯西肩负起这一使命,他在过去时空与女记者艾普利尔·奥尼尔成功接头,并和忍者神龟李奥纳多、米开朗基罗、拉斐尔、多纳太罗汇合,开启了拯救世界的行动。“我们的未来,我们自己做主”忍者神龟们向朗格发起了终极挑战。

  1. Video

  2. ID : 1

  3. Format : AVC

  4. Format/Info : Advanced Video Codec

  5. Format profile : [email protected]

  6. Format settings : CABAC / 3 Ref Frames

  7. Format settings, CABAC : Yes

  8. Format settings, Reference frames : 3 frames

  9. Codec ID : V_MPEG4/ISO/AVC

  10. Duration : 1 h 25 min

  11. Bit rate mode : Variable

  12. Bit rate : 3 552 kb/s

  13. Nominal bit rate : 4 057 kb/s

  14. Maximum bit rate : 7 665 kb/s

  15. Width : 1 920 pixels

  16. Height : 1 080 pixels

  17. Display aspect ratio : 16:9

  18. Frame rate mode : Constant

  19. Frame rate : 24.000 FPS

  20. Color space : YUV

  21. Chroma subsampling : 4:2:0

  22. Bit depth : 8 bits

  23. Scan type : Progressive

  24. Bits/(Pixel*Frame) : 0.071

  25. Stream size : 2.13 GiB (85%)

  26. Writing library : x264 core 148 r2727 7d026e8

  27. Encoding settings : cabac=1 / ref=3 / deblock=1:0:0 / analyse=0x1:0x111 / me=umh / subme=10 / psy=1 / psy_rd=1.00:0.00 / mixed_ref=1 / me_range=24 / chroma_me=1 / trellis=2 / 8x8dct=0 / cqm=0 / deadzone=21,11 / fast_pskip=1 / chroma_qp_offset=-2 / threads=8 / lookahead_threads=1 / sliced_threads=0 / nr=0 / decimate=1 / interlaced=0 / NTMzNTQ= / bluray_compat=0 / stitchable=1 / constrained_intra=0 / bframes=2 / b_pyramid=0 / b_adapt=2 / b_bias=0 / direct=3 / weightb=1 / open_gop=0 / weightp=2 / keyint=250 / keyint_min=24 / scenecut=0 / intra_refresh=0 / rc_lookahead=48 / rc=2pass / mbtree=1 / bitrate=4057 / ratetol=1.0 / qcomp=0.50 / qpmin=6 / qpmax=51 / qpstep=4 / cplxblur=20.0 / qblur=0.5 / vbv_maxrate=7665 / vbv_bufsize=10220 / nal_hrd=vbr / filler=0 / NTMzNTQ=LmsMAP37EqsCpk / ip_ratio=1.40 / aq=1:1.00

  28. Language : English

  29. Default : Yes

  30. Forced : No


  31. Audio

  32. ID : 2

  33. Format : E-AC-3

  34. Format/Info : Enhanced AC-3

  35. Commercial name : Dolby Digital Plus

  36. Codec ID : A_EAC3

  37. Duration : 1 h 25 min

  38. Bit rate mode : Constant

  39. Bit rate : 640 kb/s

  40. Channel(s) : 6 channels

  41. Channel layout : L R C LFE Ls Rs

  42. Sampling rate : 48.0 kHz

  43. Frame rate : 31.250 FPS (1536 SPF)

  44. Compression mode : Lossy

  45. Stream size : 393 MiB (15%)

  46. Language : English

  47. Service kind : Complete Main

  48. Default : Yes

  49. Forced : No


  50. Text #1

  51. ID : 3

  52. Format : UTF-8

  53. Codec ID : S_TEXT/UTF8

  54. Codec ID/Info : UTF-8 Plain Text

  55. Duration : 1 h 15 min

  56. Bit rate : 51 b/s

  57. Frame rate : 0.195 FPS

  58. Count of elements : 880

  59. Stream size : 28.2 KiB (0%)

  60. Language : English

  61. Default : No

  62. Forced : No


  63. Text #2

  64. ID : 4

  65. Format : UTF-8

  66. Codec ID : S_TEXT/UTF8

  67. Codec ID/Info : UTF-8 Plain Text

  68. Duration : 1 h 21 min

  69. Bit rate : 57 b/s

  70. Frame rate : 0.271 FPS

  71. Count of elements : 1332

  72. Stream size : 34.7 KiB (0%)

  73. Title : SDH

  74. Language : English

  75. Default : No

  76. Forced : No


  77. Text #3

  78. ID : 5

  79. Format : UTF-8

  80. Codec ID : S_TEXT/UTF8

  81. Codec ID/Info : UTF-8 Plain Text

  82. Duration : 1 h 21 min

  83. Bit rate : 75 b/s

  84. Frame rate : 0.173 FPS

  85. Count of elements : 849

  86. Stream size : 45.6 KiB (0%)

  87. Language : Arabic

  88. Default : No

  89. Forced : No


  90. Text #4

  91. ID : 6

  92. Format : UTF-8

  93. Codec ID : S_TEXT/UTF8

  94. Codec ID/Info : UTF-8 Plain Text

  95. Duration : 1 h 21 min

  96. Bit rate : 38 b/s

  97. Frame rate : 0.165 FPS

  98. Count of elements : 812

  99. Stream size : 22.8 KiB (0%)

  100. Language : Catalan

  101. Default : No

  102. Forced : No


  103. Text #5

  104. ID : 7

  105. Format : UTF-8

  106. Codec ID : S_TEXT/UTF8

  107. Codec ID/Info : UTF-8 Plain Text

  108. Duration : 1 h 21 min

  109. Bit rate : 40 b/s

  110. Frame rate : 0.168 FPS

  111. Count of elements : 824

  112. Stream size : 24.2 KiB (0%)

  113. Language : Czech

  114. Default : No

  115. Forced : No


  116. Text #6

  117. ID : 8

  118. Format : UTF-8

  119. Codec ID : S_TEXT/UTF8

  120. Codec ID/Info : UTF-8 Plain Text

  121. Duration : 1 h 21 min

  122. Bit rate : 38 b/s

  123. Frame rate : 0.160 FPS

  124. Count of elements : 785

  125. Stream size : 23.4 KiB (0%)

  126. Language : Danish

  127. Default : No

  128. Forced : No


  129. Text #7

  130. ID : 9

  131. Format : UTF-8

  132. Codec ID : S_TEXT/UTF8

  133. Codec ID/Info : UTF-8 Plain Text

  134. Duration : 1 h 21 min

  135. Bit rate : 42 b/s

  136. Frame rate : 0.160 FPS

  137. Count of elements : 788

  138. Stream size : 25.4 KiB (0%)

  139. Language : German

  140. Default : No

  141. Forced : No


  142. Text #8

  143. ID : 10

  144. Format : UTF-8

  145. Codec ID : S_TEXT/UTF8

  146. Codec ID/Info : UTF-8 Plain Text

  147. Duration : 1 h 21 min

  148. Bit rate : 66 b/s

  149. Frame rate : 0.160 FPS

  150. Count of elements : 787

  151. Stream size : 39.8 KiB (0%)

  152. Language : Greek

  153. Default : No

  154. Forced : No


  155. Text #9

  156. ID : 11

  157. Format : UTF-8

  158. Codec ID : S_TEXT/UTF8

  159. Codec ID/Info : UTF-8 Plain Text

  160. Duration : 1 h 15 min

  161. Bit rate : 50 b/s

  162. Frame rate : 0.192 FPS

  163. Count of elements : 875

  164. Stream size : 28.3 KiB (0%)

  165. Language : Spanish

  166. Default : No

  167. Forced : No


  168. Text #10

  169. ID : 12

  170. Format : UTF-8

  171. Codec ID : S_TEXT/UTF8

  172. Codec ID/Info : UTF-8 Plain Text

  173. Duration : 1 h 21 min

  174. Bit rate : 39 b/s

  175. Frame rate : 0.171 FPS

  176. Count of elements : 840

  177. Stream size : 23.8 KiB (0%)

  178. Language : Spanish

  179. Default : No

  180. Forced : No


  181. Text #11

  182. ID : 13

  183. Format : UTF-8

  184. Codec ID : S_TEXT/UTF8

  185. Codec ID/Info : UTF-8 Plain Text

  186. Duration : 1 h 21 min

  187. Bit rate : 39 b/s

  188. Frame rate : 0.156 FPS

  189. Count of elements : 767

  190. Stream size : 23.5 KiB (0%)

  191. Title : European

  192. Language : Spanish

  193. Default : No

  194. Forced : No


  195. Text #12

  196. ID : 14

  197. Format : UTF-8

  198. Codec ID : S_TEXT/UTF8

  199. Codec ID/Info : UTF-8 Plain Text

  200. Duration : 1 h 15 min

  201. Bit rate : 54 b/s

  202. Frame rate : 0.212 FPS

  203. Count of elements : 966

  204. Stream size : 30.4 KiB (0%)

  205. Title : SDH

  206. Language : Spanish

  207. Default : No

  208. Forced : No


  209. Text #13

  210. ID : 15

  211. Format : UTF-8

  212. Codec ID : S_TEXT/UTF8

  213. Codec ID/Info : UTF-8 Plain Text

  214. Duration : 1 h 21 min

  215. Bit rate : 42 b/s

  216. Frame rate : 0.172 FPS

  217. Count of elements : 846

  218. Stream size : 25.2 KiB (0%)

  219. Language : Basque

  220. Default : No

  221. Forced : No


  222. Text #14

  223. ID : 16

  224. Format : UTF-8

  225. Codec ID : S_TEXT/UTF8

  226. Codec ID/Info : UTF-8 Plain Text

  227. Duration : 1 h 21 min

  228. Bit rate : 39 b/s

  229. Frame rate : 0.147 FPS

  230. Count of elements : 721

  231. Stream size : 23.5 KiB (0%)

  232. Language : Finnish

  233. Default : No

  234. Forced : No


  235. Text #15

  236. ID : 17

  237. Format : UTF-8

  238. Codec ID : S_TEXT/UTF8

  239. Codec ID/Info : UTF-8 Plain Text

  240. Duration : 1 h 21 min

  241. Bit rate : 40 b/s

  242. Frame rate : 0.156 FPS

  243. Count of elements : 766

  244. Stream size : 24.6 KiB (0%)

  245. Language : fil

  246. Default : No

  247. Forced : No


  248. Text #16

  249. ID : 18

  250. Format : UTF-8

  251. Codec ID : S_TEXT/UTF8

  252. Codec ID/Info : UTF-8 Plain Text

  253. Duration : 1 h 21 min

  254. Bit rate : 40 b/s

  255. Frame rate : 0.162 FPS

  256. Count of elements : 795

  257. Stream size : 24.1 KiB (0%)

  258. Language : French

  259. Default : No

  260. Forced : No


  261. Text #17

  262. ID : 19

  263. Format : UTF-8

  264. Codec ID : S_TEXT/UTF8

  265. Codec ID/Info : UTF-8 Plain Text

  266. Duration : 1 h 21 min

  267. Bit rate : 36 b/s

  268. Frame rate : 0.172 FPS

  269. Count of elements : 845

  270. Stream size : 22.1 KiB (0%)

  271. Language : Galician

  272. Default : No

  273. Forced : No


  274. Text #18

  275. ID : 20

  276. Format : UTF-8

  277. Codec ID : S_TEXT/UTF8

  278. Codec ID/Info : UTF-8 Plain Text

  279. Duration : 1 h 21 min

  280. Bit rate : 72 b/s

  281. Frame rate : 0.163 FPS

  282. Count of elements : 802

  283. Stream size : 43.7 KiB (0%)

  284. Language : Hebrew

  285. Default : No

  286. Forced : No


  287. Text #19

  288. ID : 21

  289. Format : UTF-8

  290. Codec ID : S_TEXT/UTF8

  291. Codec ID/Info : UTF-8 Plain Text

  292. Duration : 1 h 21 min

  293. Bit rate : 37 b/s

  294. Frame rate : 0.160 FPS

  295. Count of elements : 786

  296. Stream size : 22.2 KiB (0%)

  297. Language : Croatian

  298. Default : No

  299. Forced : No


  300. Text #20

  301. ID : 22

  302. Format : UTF-8

  303. Codec ID : S_TEXT/UTF8

  304. Codec ID/Info : UTF-8 Plain Text

  305. Duration : 1 h 21 min

  306. Bit rate : 40 b/s

  307. Frame rate : 0.155 FPS

  308. Count of elements : 763

  309. Stream size : 24.1 KiB (0%)

  310. Language : Hungarian

  311. Default : No

  312. Forced : No


  313. Text #21

  314. ID : 23

  315. Format : UTF-8

  316. Codec ID : S_TEXT/UTF8

  317. Codec ID/Info : UTF-8 Plain Text

  318. Duration : 1 h 21 min

  319. Bit rate : 40 b/s

  320. Frame rate : 0.171 FPS

  321. Count of elements : 838

  322. Stream size : 24.2 KiB (0%)

  323. Language : Indonesian

  324. Default : No

  325. Forced : No


  326. Text #22

  327. ID : 24

  328. Format : UTF-8

  329. Codec ID : S_TEXT/UTF8

  330. Codec ID/Info : UTF-8 Plain Text

  331. Duration : 1 h 21 min

  332. Bit rate : 44 b/s

  333. Frame rate : 0.159 FPS

  334. Count of elements : 782

  335. Stream size : 26.6 KiB (0%)

  336. Language : Italian

  337. Default : No

  338. Forced : No


  339. Text #23

  340. ID : 25

  341. Format : UTF-8

  342. Codec ID : S_TEXT/UTF8

  343. Codec ID/Info : UTF-8 Plain Text

  344. Duration : 1 h 21 min

  345. Bit rate : 73 b/s

  346. Frame rate : 0.199 FPS

  347. Count of elements : 980

  348. Stream size : 43.9 KiB (0%)

  349. Language : Japanese

  350. Default : No

  351. Forced : No


  352. Text #24

  353. ID : 26

  354. Format : UTF-8

  355. Codec ID : S_TEXT/UTF8

  356. Codec ID/Info : UTF-8 Plain Text

  357. Duration : 1 h 21 min

  358. Bit rate : 60 b/s

  359. Frame rate : 0.187 FPS

  360. Count of elements : 921

  361. Stream size : 36.4 KiB (0%)

  362. Language : Korean

  363. Default : No

  364. Forced : No


  365. Text #25

  366. ID : 27

  367. Format : UTF-8

  368. Codec ID : S_TEXT/UTF8

  369. Codec ID/Info : UTF-8 Plain Text

  370. Duration : 1 h 21 min

  371. Bit rate : 41 b/s

  372. Frame rate : 0.154 FPS

  373. Count of elements : 755

  374. Stream size : 25.0 KiB (0%)

  375. Language : Malay

  376. Default : No

  377. Forced : No


  378. Text #26

  379. ID : 28

  380. Format : UTF-8

  381. Codec ID : S_TEXT/UTF8

  382. Codec ID/Info : UTF-8 Plain Text

  383. Duration : 1 h 21 min

  384. Bit rate : 39 b/s

  385. Frame rate : 0.161 FPS

  386. Count of elements : 790

  387. Stream size : 23.8 KiB (0%)

  388. Language : Norwegian Bokmal

  389. Default : No

  390. Forced : No


  391. Text #27

  392. ID : 29

  393. Format : UTF-8

  394. Codec ID : S_TEXT/UTF8

  395. Codec ID/Info : UTF-8 Plain Text

  396. Duration : 1 h 15 min

  397. Bit rate : 42 b/s

  398. Frame rate : 0.166 FPS

  399. Count of elements : 759

  400. Stream size : 23.7 KiB (0%)

  401. Language : Dutch

  402. Default : No

  403. Forced : No


  404. Text #28

  405. ID : 30

  406. Format : UTF-8

  407. Codec ID : S_TEXT/UTF8

  408. Codec ID/Info : UTF-8 Plain Text

  409. Duration : 1 h 21 min

  410. Bit rate : 34 b/s

  411. Frame rate : 0.163 FPS

  412. Count of elements : 801

  413. Stream size : 20.8 KiB (0%)

  414. Language : Polish

  415. Default : No

  416. Forced : No


  417. Text #29

  418. ID : 31

  419. Format : UTF-8

  420. Codec ID : S_TEXT/UTF8

  421. Codec ID/Info : UTF-8 Plain Text

  422. Duration : 1 h 21 min

  423. Bit rate : 46 b/s

  424. Frame rate : 0.168 FPS

  425. Count of elements : 826

  426. Stream size : 27.8 KiB (0%)

  427. Language : Portuguese

  428. Default : No

  429. Forced : No


  430. Text #30

  431. ID : 32

  432. Format : UTF-8

  433. Codec ID : S_TEXT/UTF8

  434. Codec ID/Info : UTF-8 Plain Text

  435. Duration : 1 h 15 min

  436. Bit rate : 54 b/s

  437. Frame rate : 0.200 FPS

  438. Count of elements : 914

  439. Stream size : 30.2 KiB (0%)

  440. Title : Brazilian

  441. Language : Portuguese

  442. Default : No

  443. Forced : No


  444. Text #31

  445. ID : 33

  446. Format : UTF-8

  447. Codec ID : S_TEXT/UTF8

  448. Codec ID/Info : UTF-8 Plain Text

  449. Duration : 1 h 21 min

  450. Bit rate : 39 b/s

  451. Frame rate : 0.171 FPS

  452. Count of elements : 842

  453. Stream size : 23.6 KiB (0%)

  454. Title : Brazilian

  455. Language : Portuguese

  456. Default : No

  457. Forced : No


  458. Text #32

  459. ID : 34

  460. Format : UTF-8

  461. Codec ID : S_TEXT/UTF8

  462. Codec ID/Info : UTF-8 Plain Text

  463. Duration : 1 h 22 min

  464. Bit rate : 63 b/s

  465. Frame rate : 0.264 FPS

  466. Count of elements : 1300

  467. Stream size : 38.3 KiB (0%)

  468. Title : Brazilian (SDH)

  469. Language : Portuguese

  470. Default : No

  471. Forced : No


  472. Text #33

  473. ID : 35

  474. Format : UTF-8

  475. Codec ID : S_TEXT/UTF8

  476. Codec ID/Info : UTF-8 Plain Text

  477. Duration : 1 h 21 min

  478. Bit rate : 45 b/s

  479. Frame rate : 0.154 FPS

  480. Count of elements : 757

  481. Stream size : 27.3 KiB (0%)

  482. Language : Romanian

  483. Default : No

  484. Forced : No


  485. Text #34

  486. ID : 36

  487. Format : UTF-8

  488. Codec ID : S_TEXT/UTF8

  489. Codec ID/Info : UTF-8 Plain Text

  490. Duration : 1 h 21 min

  491. Bit rate : 66 b/s

  492. Frame rate : 0.170 FPS

  493. Count of elements : 835

  494. Stream size : 39.8 KiB (0%)

  495. Language : Russian

  496. Default : No

  497. Forced : No


  498. Text #35

  499. ID : 37

  500. Format : UTF-8

  501. Codec ID : S_TEXT/UTF8

  502. Codec ID/Info : UTF-8 Plain Text

  503. Duration : 1 h 21 min

  504. Bit rate : 40 b/s

  505. Frame rate : 0.149 FPS

  506. Count of elements : 731

  507. Stream size : 24.3 KiB (0%)

  508. Language : Swedish

  509. Default : No

  510. Forced : No


  511. Text #36

  512. ID : 38

  513. Format : UTF-8

  514. Codec ID : S_TEXT/UTF8

  515. Codec ID/Info : UTF-8 Plain Text

  516. Duration : 1 h 21 min

  517. Bit rate : 116 b/s

  518. Frame rate : 0.172 FPS

  519. Count of elements : 845

  520. Stream size : 70.2 KiB (0%)

  521. Language : Thai

  522. Default : No

  523. Forced : No


  524. Text #37

  525. ID : 39

  526. Format : UTF-8

  527. Codec ID : S_TEXT/UTF8

  528. Codec ID/Info : UTF-8 Plain Text

  529. Duration : 1 h 21 min

  530. Bit rate : 45 b/s

  531. Frame rate : 0.170 FPS

  532. Count of elements : 834

  533. Stream size : 27.2 KiB (0%)

  534. Language : Turkish

  535. Default : No

  536. Forced : No


  537. Text #38

  538. ID : 40

  539. Format : UTF-8

  540. Codec ID : S_TEXT/UTF8

  541. Codec ID/Info : UTF-8 Plain Text

  542. Duration : 1 h 21 min

  543. Bit rate : 65 b/s

  544. Frame rate : 0.163 FPS

  545. Count of elements : 799

  546. Stream size : 39.0 KiB (0%)

  547. Language : Ukrainian

  548. Default : No

  549. Forced : No


  550. Text #39

  551. ID : 41

  552. Format : UTF-8

  553. Codec ID : S_TEXT/UTF8

  554. Codec ID/Info : UTF-8 Plain Text

  555. Duration : 1 h 21 min

  556. Bit rate : 58 b/s

  557. Frame rate : 0.156 FPS

  558. Count of elements : 769

  559. Stream size : 35.3 KiB (0%)

  560. Language : Vietnamese

  561. Default : No

  562. Forced : No


  563. Text #40

  564. ID : 42

  565. Format : UTF-8

  566. Codec ID : S_TEXT/UTF8

  567. Codec ID/Info : UTF-8 Plain Text

  568. Duration : 1 h 21 min

  569. Bit rate : 52 b/s

  570. Frame rate : 0.173 FPS

  571. Count of elements : 851

  572. Stream size : 31.4 KiB (0%)

  573. Title : Simplified

  574. Language : Chinese

  575. Default : No

  576. Forced : No


  577. Text #41

  578. ID : 43

  579. Format : UTF-8

  580. Codec ID : S_TEXT/UTF8

  581. Codec ID/Info : UTF-8 Plain Text

  582. Duration : 1 h 21 min

  583. Bit rate : 48 b/s

  584. Frame rate : 0.178 FPS

  585. Count of elements : 873

  586. Stream size : 29.1 KiB (0%)

  587. Title : Traditional

  588. Language : Chinese

  589. Default : No

  590. Forced : No

复制代码

忍者神龟:崛起[中文字幕].Rise.of.the.Teenage.Mutant.Ninja.Turtles.The.Movie.2022.1080p.NF.WEBRip.DDP5.1.x264 SM  动画电影  第3张 忍者神龟:崛起[中文字幕].Rise.of.the.Teenage.Mutant.Ninja.Turtles.The.Movie.2022.1080p.NF.WEBRip.DDP5.1.x264 SM  动画电影  第4张 忍者神龟:崛起[中文字幕].Rise.of.the.Teenage.Mutant.Ninja.Turtles.The.Movie.2022.1080p.NF.WEBRip.DDP5.1.x264 SM  动画电影  第5张



文件下载


除非特别注明,本文『忍者神龟:崛起[中文字幕].Rise.of.the.Teenage.Mutant.Ninja.Turtles.The.Movie.2022.1080p.NF.WEBRip.DDP5.1.x264-SM』来源于互联网机器人自动抓取,非本站原创。 浮游电影网不对本文拥有版权,如有侵犯,请联系邮箱:fuyouu#yandex.com[#换成@]投诉。我们会在15个工作日内删除。 但烦请转载时请标明出处:“本文转载于『浮游电影网』,原文地址:https://www.fuyouu.com/22743.html

评论吧骚年!

发表你的见解   

昵称*

E-mail*(建议输入,以便收到博主回复的提示邮件)

验证码*

您可以使用eMule或eMule Mod(Windows)、aMule(Win、Linux、Mac)等软件下载eD2k链接。。
eMule收藏集(.emulecollection)文件是您选中的所有链接的列表文件。eMule可以直接下载它们。
按住SHIFT键选择可以选中多个选择框。
可用文件名和大小选择器来选择文件。
文件名选择器帮您根据文件名称或后缀来选择文件。不分大小写。
符号使用:
和:空格( )、+
不包含:-
或:|
转义:一对英文引号("");
匹配开头:^
匹配结尾:$
例如:
选中所有名称中包含有“eMule”或“0.49c”字眼,但不包含有“exe”字眼的:emule|0.49c -exe
选中所有名称的开头是“eMule”,结尾是“0.49c”的:^emule 0.49c$
选中所有名称中带有“eMule 0.49c”的(必须是“eMule 0.49c”,中间没有别的字符,不能是“eMule fake 0.49c”),需要转义:"emule 0.49c"
大小选择器帮您根据文件大小选择文件。