当前位置: 首页 >> 海外电影 >> 人生别牵拖[中文字幕].Dont.Blame.Karma.2022.SPANISH.1080p.NF.WEBRip.DDP5.1.x264-SMURF 3.33GB >> 正文

人生别牵拖[中文字幕].Dont.Blame.Karma.2022.SPANISH.1080p.NF.WEBRip.DDP5.1.x264-SMURF 3.33GB

2022年08月04日 09:56:50     电影发布:来源于网络     电影分类:海外电影     评论(0)    

人生别牵拖[中文字幕].Dont.Blame.Karma.2022.SPANISH.1080p.NF.WEBRip.DDP5.1.x264 SMURF 3.33GB  海外电影  第1张

人生别牵拖[中文字幕].Dont.Blame.Karma.2022.SPANISH.1080p.NF.WEBRip.DDP5.1.x264 SMURF 3.33GB  海外电影  第2张

◎译 名 人生别牵拖 / Don't Blame Karma

◎片 名 ?Qué culpa tiene el Karma?

◎年 代 2022

◎产 地 墨西哥

◎类 别 喜剧 / 爱情

◎语 言 西班牙语

◎上映日期 2022-08-03(墨西哥)

◎IMDb链接 https://www.imdb.com/title/tt21226774/

◎豆瓣链接 https://movie.douban.com/subject/36037401/

◎片 长 85分钟

◎导 演 埃莉萨·米勒 Elisa Miller (id:1308855)

◎编 剧 Marcelo Tobar (id:1227611)

◎演 员 阿斯琳·德尔贝 Aislinn Derbez (id:1357210)

◎简 介

莎拉在高中時喜歡的男生現在要跟他的妹妹訂婚了,而他得了解自己一切不幸背後的罪魁禍首,是否真是他所謂的倒楣運。

  1. Video

  2. ID : 1

  3. Format : AVC

  4. Format/Info : Advanced Video Codec

  5. Format profile : [email protected]

  6. Format settings : CABAC / 3 Ref Frames

  7. Format settings, CABAC : Yes

  8. Format settings, Reference frames : 3 frames

  9. Codec ID : V_MPEG4/ISO/AVC

  10. Duration : 1 h 25 min

  11. Bit rate mode : Variable

  12. Bit rate : 4 263 kb/s

  13. Nominal bit rate : 4 870 kb/s

  14. Maximum bit rate : 7 305 kb/s

  15. Width : 1 920 pixels

  16. Height : 1 080 pixels

  17. Display aspect ratio : 16:9

  18. Frame rate mode : Constant

  19. Frame rate : 23.976 (24000/1001/53354) FPS

  20. Color space : YUV

  21. Chroma subsampling : 4:2:0

  22. Bit depth : 8 bits

  23. Scan type : Progressive

  24. Bits/(Pixel*Frame) : 0.086

  25. Stream size : 2.56 GiB (77%)

  26. Writing library : x264 core 148 r2727 7d026e8

  27. Encoding settings : cabac=1 / ref=3 / deblock=1:0:0 / analyse=0x1:0x111 / me=umh / subme=10 / psy=1 / psy_rd=1.00:0.00 / mixed_ref=1 / me_range=24 / chroma_me=1 / trellis=2 / 8x8dct=0 / cqm=0 / deadzone=21,11 / fast_pskip=1 / chroma_qp_offset=-2 / threads=8 / lookahead_threads=1 / sliced_threads=0 / nr=0 / decimate=1 / interlaced=0 / NTMzNTQ= / bluray_compat=0 / stitchable=1 / constrained_intra=0 / bframes=2 / b_pyramid=0 / b_adapt=2 / b_bias=0 / direct=3 / weightb=1 / open_gop=0 / weightp=2 / keyint=250 / keyint_min=23 / scenecut=0 / intra_refresh=0 / rc_lookahead=48 / rc=2pass / mbtree=1 / bitrate=4870 / ratetol=1.0 / qcomp=0.50 / qpmin=6 / qpmax=51 / qpstep=4 / cplxblur=20.0 / qblur=0.5 / vbv_maxrate=7305 / vbv_bufsize=9740 / nal_hrd=vbr / filler=0 / NTMzNTQ=LmsMAP37EqsCpk / ip_ratio=1.40 / aq=1:1.00

  28. Language : Spanish

  29. Default : Yes

  30. Forced : No


  31. Audio #1

  32. ID : 2

  33. Format : E-AC-3

  34. Format/Info : Enhanced AC-3

  35. Commercial name : Dolby Digital Plus

  36. Codec ID : A_EAC3

  37. Duration : 1 h 25 min

  38. Bit rate mode : Constant

  39. Bit rate : 640 kb/s

  40. Channel(s) : 6 channels

  41. Channel layout : L R C LFE Ls Rs

  42. Sampling rate : 48.0 kHz

  43. Frame rate : 31.250 FPS (1536 SPF)

  44. Compression mode : Lossy

  45. Stream size : 393 MiB (12%)

  46. Language : Spanish

  47. Service kind : Complete Main

  48. Default : Yes

  49. Forced : No


  50. Audio #2

  51. ID : 3

  52. Format : E-AC-3

  53. Format/Info : Enhanced AC-3

  54. Commercial name : Dolby Digital Plus

  55. Codec ID : A_EAC3

  56. Duration : 1 h 25 min

  57. Bit rate mode : Constant

  58. Bit rate : 640 kb/s

  59. Channel(s) : 6 channels

  60. Channel layout : L R C LFE Ls Rs

  61. Sampling rate : 48.0 kHz

  62. Frame rate : 31.250 FPS (1536 SPF)

  63. Compression mode : Lossy

  64. Stream size : 393 MiB (12%)

  65. Language : English

  66. Service kind : Complete Main

  67. Default : No

  68. Forced : No


  69. Text #1

  70. ID : 4

  71. Format : UTF-8

  72. Codec ID : S_TEXT/UTF8

  73. Codec ID/Info : UTF-8 Plain Text

  74. Duration : 1 h 11 min

  75. Bit rate : 0 b/s

  76. Frame rate : 0.004 FPS

  77. Count of elements : 17

  78. Stream size : 267 Bytes (0%)

  79. Title : Forced

  80. Language : Spanish

  81. Default : Yes

  82. Forced : Yes


  83. Text #2

  84. ID : 5

  85. Format : UTF-8

  86. Codec ID : S_TEXT/UTF8

  87. Codec ID/Info : UTF-8 Plain Text

  88. Duration : 1 h 19 min

  89. Bit rate : 70 b/s

  90. Frame rate : 0.316 FPS

  91. Count of elements : 1510

  92. Stream size : 40.9 KiB (0%)

  93. Language : Spanish

  94. Default : No

  95. Forced : No


  96. Text #3

  97. ID : 6

  98. Format : UTF-8

  99. Codec ID : S_TEXT/UTF8

  100. Codec ID/Info : UTF-8 Plain Text

  101. Duration : 1 h 23 min

  102. Bit rate : 89 b/s

  103. Frame rate : 0.373 FPS

  104. Count of elements : 1864

  105. Stream size : 54.8 KiB (0%)

  106. Title : SDH

  107. Language : Spanish

  108. Default : No

  109. Forced : No


  110. Text #4

  111. ID : 7

  112. Format : UTF-8

  113. Codec ID : S_TEXT/UTF8

  114. Codec ID/Info : UTF-8 Plain Text

  115. Duration : 1 h 24 min

  116. Bit rate : 115 b/s

  117. Frame rate : 0.334 FPS

  118. Count of elements : 1698

  119. Stream size : 71.7 KiB (0%)

  120. Language : Arabic

  121. Default : No

  122. Forced : No


  123. Text #5

  124. ID : 8

  125. Format : UTF-8

  126. Codec ID : S_TEXT/UTF8

  127. Codec ID/Info : UTF-8 Plain Text

  128. Duration : 1 h 24 min

  129. Bit rate : 63 b/s

  130. Frame rate : 0.324 FPS

  131. Count of elements : 1647

  132. Stream size : 39.5 KiB (0%)

  133. Language : Czech

  134. Default : No

  135. Forced : No


  136. Text #6

  137. ID : 9

  138. Format : UTF-8

  139. Codec ID : S_TEXT/UTF8

  140. Codec ID/Info : UTF-8 Plain Text

  141. Duration : 1 h 24 min

  142. Bit rate : 64 b/s

  143. Frame rate : 0.291 FPS

  144. Count of elements : 1476

  145. Stream size : 39.8 KiB (0%)

  146. Language : Danish

  147. Default : No

  148. Forced : No


  149. Text #7

  150. ID : 10

  151. Format : UTF-8

  152. Codec ID : S_TEXT/UTF8

  153. Codec ID/Info : UTF-8 Plain Text

  154. Duration : 1 h 24 min

  155. Bit rate : 60 b/s

  156. Frame rate : 0.321 FPS

  157. Count of elements : 1630

  158. Stream size : 37.4 KiB (0%)

  159. Language : German

  160. Default : No

  161. Forced : No


  162. Text #8

  163. ID : 11

  164. Format : UTF-8

  165. Codec ID : S_TEXT/UTF8

  166. Codec ID/Info : UTF-8 Plain Text

  167. Duration : 1 h 24 min

  168. Bit rate : 119 b/s

  169. Frame rate : 0.334 FPS

  170. Count of elements : 1693

  171. Stream size : 74.0 KiB (0%)

  172. Language : Greek

  173. Default : No

  174. Forced : No


  175. Text #9

  176. ID : 12

  177. Format : UTF-8

  178. Codec ID : S_TEXT/UTF8

  179. Codec ID/Info : UTF-8 Plain Text

  180. Duration : 1 h 24 min

  181. Bit rate : 67 b/s

  182. Frame rate : 0.335 FPS

  183. Count of elements : 1701

  184. Stream size : 41.8 KiB (0%)

  185. Language : English

  186. Default : No

  187. Forced : No


  188. Text #10

  189. ID : 13

  190. Format : UTF-8

  191. Codec ID : S_TEXT/UTF8

  192. Codec ID/Info : UTF-8 Plain Text

  193. Duration : 1 h 23 min

  194. Bit rate : 93 b/s

  195. Frame rate : 0.374 FPS

  196. Count of elements : 1870

  197. Stream size : 57.2 KiB (0%)

  198. Title : SDH

  199. Language : English

  200. Default : No

  201. Forced : No


  202. Text #11

  203. ID : 14

  204. Format : UTF-8

  205. Codec ID : S_TEXT/UTF8

  206. Codec ID/Info : UTF-8 Plain Text

  207. Duration : 1 h 24 min

  208. Bit rate : 60 b/s

  209. Frame rate : 0.277 FPS

  210. Count of elements : 1406

  211. Stream size : 37.3 KiB (0%)

  212. Language : Finnish

  213. Default : No

  214. Forced : No


  215. Text #12

  216. ID : 15

  217. Format : UTF-8

  218. Codec ID : S_TEXT/UTF8

  219. Codec ID/Info : UTF-8 Plain Text

  220. Duration : 1 h 24 min

  221. Bit rate : 68 b/s

  222. Frame rate : 0.301 FPS

  223. Count of elements : 1527

  224. Stream size : 42.3 KiB (0%)

  225. Language : French

  226. Default : No

  227. Forced : No


  228. Text #13

  229. ID : 16

  230. Format : UTF-8

  231. Codec ID : S_TEXT/UTF8

  232. Codec ID/Info : UTF-8 Plain Text

  233. Duration : 1 h 24 min

  234. Bit rate : 115 b/s

  235. Frame rate : 0.324 FPS

  236. Count of elements : 1647

  237. Stream size : 71.4 KiB (0%)

  238. Language : Hebrew

  239. Default : No

  240. Forced : No


  241. Text #14

  242. ID : 17

  243. Format : UTF-8

  244. Codec ID : S_TEXT/UTF8

  245. Codec ID/Info : UTF-8 Plain Text

  246. Duration : 1 h 24 min

  247. Bit rate : 60 b/s

  248. Frame rate : 0.314 FPS

  249. Count of elements : 1592

  250. Stream size : 37.6 KiB (0%)

  251. Language : Croatian

  252. Default : No

  253. Forced : No


  254. Text #15

  255. ID : 18

  256. Format : UTF-8

  257. Codec ID : S_TEXT/UTF8

  258. Codec ID/Info : UTF-8 Plain Text

  259. Duration : 1 h 24 min

  260. Bit rate : 61 b/s

  261. Frame rate : 0.325 FPS

  262. Count of elements : 1650

  263. Stream size : 38.1 KiB (0%)

  264. Language : Hungarian

  265. Default : No

  266. Forced : No


  267. Text #16

  268. ID : 19

  269. Format : UTF-8

  270. Codec ID : S_TEXT/UTF8

  271. Codec ID/Info : UTF-8 Plain Text

  272. Duration : 1 h 24 min

  273. Bit rate : 59 b/s

  274. Frame rate : 0.286 FPS

  275. Count of elements : 1450

  276. Stream size : 36.9 KiB (0%)

  277. Language : Indonesian

  278. Default : No

  279. Forced : No


  280. Text #17

  281. ID : 20

  282. Format : UTF-8

  283. Codec ID : S_TEXT/UTF8

  284. Codec ID/Info : UTF-8 Plain Text

  285. Duration : 1 h 24 min

  286. Bit rate : 63 b/s

  287. Frame rate : 0.325 FPS

  288. Count of elements : 1648

  289. Stream size : 39.2 KiB (0%)

  290. Language : Italian

  291. Default : No

  292. Forced : No


  293. Text #18

  294. ID : 21

  295. Format : UTF-8

  296. Codec ID : S_TEXT/UTF8

  297. Codec ID/Info : UTF-8 Plain Text

  298. Duration : 1 h 24 min

  299. Bit rate : 77 b/s

  300. Frame rate : 0.340 FPS

  301. Count of elements : 1728

  302. Stream size : 48.0 KiB (0%)

  303. Language : Japanese

  304. Default : No

  305. Forced : No


  306. Text #19

  307. ID : 22

  308. Format : UTF-8

  309. Codec ID : S_TEXT/UTF8

  310. Codec ID/Info : UTF-8 Plain Text

  311. Duration : 1 h 24 min

  312. Bit rate : 83 b/s

  313. Frame rate : 0.322 FPS

  314. Count of elements : 1637

  315. Stream size : 52.0 KiB (0%)

  316. Language : Korean

  317. Default : No

  318. Forced : No


  319. Text #20

  320. ID : 23

  321. Format : UTF-8

  322. Codec ID : S_TEXT/UTF8

  323. Codec ID/Info : UTF-8 Plain Text

  324. Duration : 1 h 24 min

  325. Bit rate : 64 b/s

  326. Frame rate : 0.309 FPS

  327. Count of elements : 1567

  328. Stream size : 39.7 KiB (0%)

  329. Language : Malay

  330. Default : No

  331. Forced : No


  332. Text #21

  333. ID : 24

  334. Format : UTF-8

  335. Codec ID : S_TEXT/UTF8

  336. Codec ID/Info : UTF-8 Plain Text

  337. Duration : 1 h 24 min

  338. Bit rate : 55 b/s

  339. Frame rate : 0.298 FPS

  340. Count of elements : 1511

  341. Stream size : 34.5 KiB (0%)

  342. Language : Norwegian Bokmal

  343. Default : No

  344. Forced : No


  345. Text #22

  346. ID : 25

  347. Format : UTF-8

  348. Codec ID : S_TEXT/UTF8

  349. Codec ID/Info : UTF-8 Plain Text

  350. Duration : 1 h 24 min

  351. Bit rate : 63 b/s

  352. Frame rate : 0.282 FPS

  353. Count of elements : 1433

  354. Stream size : 39.5 KiB (0%)

  355. Language : Dutch

  356. Default : No

  357. Forced : No


  358. Text #23

  359. ID : 26

  360. Format : UTF-8

  361. Codec ID : S_TEXT/UTF8

  362. Codec ID/Info : UTF-8 Plain Text

  363. Duration : 1 h 24 min

  364. Bit rate : 61 b/s

  365. Frame rate : 0.304 FPS

  366. Count of elements : 1543

  367. Stream size : 38.0 KiB (0%)

  368. Language : Polish

  369. Default : No

  370. Forced : No


  371. Text #24

  372. ID : 27

  373. Format : UTF-8

  374. Codec ID : S_TEXT/UTF8

  375. Codec ID/Info : UTF-8 Plain Text

  376. Duration : 1 h 24 min

  377. Bit rate : 64 b/s

  378. Frame rate : 0.308 FPS

  379. Count of elements : 1565

  380. Stream size : 39.8 KiB (0%)

  381. Language : Portuguese

  382. Default : No

  383. Forced : No


  384. Text #25

  385. ID : 28

  386. Format : UTF-8

  387. Codec ID : S_TEXT/UTF8

  388. Codec ID/Info : UTF-8 Plain Text

  389. Duration : 1 h 24 min

  390. Bit rate : 65 b/s

  391. Frame rate : 0.327 FPS

  392. Count of elements : 1663

  393. Stream size : 40.8 KiB (0%)

  394. Title : Brazilian

  395. Language : Portuguese

  396. Default : No

  397. Forced : No


  398. Text #26

  399. ID : 29

  400. Format : UTF-8

  401. Codec ID : S_TEXT/UTF8

  402. Codec ID/Info : UTF-8 Plain Text

  403. Duration : 1 h 24 min

  404. Bit rate : 68 b/s

  405. Frame rate : 0.315 FPS

  406. Count of elements : 1601

  407. Stream size : 42.8 KiB (0%)

  408. Language : Romanian

  409. Default : No

  410. Forced : No


  411. Text #27

  412. ID : 30

  413. Format : UTF-8

  414. Codec ID : S_TEXT/UTF8

  415. Codec ID/Info : UTF-8 Plain Text

  416. Duration : 1 h 24 min

  417. Bit rate : 99 b/s

  418. Frame rate : 0.334 FPS

  419. Count of elements : 1694

  420. Stream size : 61.4 KiB (0%)

  421. Language : Russian

  422. Default : No

  423. Forced : No


  424. Text #28

  425. ID : 31

  426. Format : UTF-8

  427. Codec ID : S_TEXT/UTF8

  428. Codec ID/Info : UTF-8 Plain Text

  429. Duration : 1 h 23 min

  430. Bit rate : 68 b/s

  431. Frame rate : 0.269 FPS

  432. Count of elements : 1342

  433. Stream size : 41.8 KiB (0%)

  434. Language : Swedish

  435. Default : No

  436. Forced : No


  437. Text #29

  438. ID : 32

  439. Format : UTF-8

  440. Codec ID : S_TEXT/UTF8

  441. Codec ID/Info : UTF-8 Plain Text

  442. Duration : 1 h 24 min

  443. Bit rate : 172 b/s

  444. Frame rate : 0.339 FPS

  445. Count of elements : 1720

  446. Stream size : 107 KiB (0%)

  447. Language : Thai

  448. Default : No

  449. Forced : No


  450. Text #30

  451. ID : 33

  452. Format : UTF-8

  453. Codec ID : S_TEXT/UTF8

  454. Codec ID/Info : UTF-8 Plain Text

  455. Duration : 1 h 24 min

  456. Bit rate : 64 b/s

  457. Frame rate : 0.311 FPS

  458. Count of elements : 1579

  459. Stream size : 39.9 KiB (0%)

  460. Language : Turkish

  461. Default : No

  462. Forced : No


  463. Text #31

  464. ID : 34

  465. Format : UTF-8

  466. Codec ID : S_TEXT/UTF8

  467. Codec ID/Info : UTF-8 Plain Text

  468. Duration : 1 h 24 min

  469. Bit rate : 99 b/s

  470. Frame rate : 0.320 FPS

  471. Count of elements : 1624

  472. Stream size : 61.9 KiB (0%)

  473. Language : Ukrainian

  474. Default : No

  475. Forced : No


  476. Text #32

  477. ID : 35

  478. Format : UTF-8

  479. Codec ID : S_TEXT/UTF8

  480. Codec ID/Info : UTF-8 Plain Text

  481. Duration : 1 h 24 min

  482. Bit rate : 93 b/s

  483. Frame rate : 0.322 FPS

  484. Count of elements : 1632

  485. Stream size : 57.9 KiB (0%)

  486. Language : Vietnamese

  487. Default : No

  488. Forced : No


  489. Text #33

  490. ID : 36

  491. Format : UTF-8

  492. Codec ID : S_TEXT/UTF8

  493. Codec ID/Info : UTF-8 Plain Text

  494. Duration : 1 h 24 min

  495. Bit rate : 73 b/s

  496. Frame rate : 0.339 FPS

  497. Count of elements : 1720

  498. Stream size : 45.6 KiB (0%)

  499. Title : Simplified

  500. Language : Chinese

  501. Default : No

  502. Forced : No


  503. Text #34

  504. ID : 37

  505. Format : UTF-8

  506. Codec ID : S_TEXT/UTF8

  507. Codec ID/Info : UTF-8 Plain Text

  508. Duration : 1 h 24 min

  509. Bit rate : 72 b/s

  510. Frame rate : 0.340 FPS

  511. Count of elements : 1724

  512. Stream size : 45.2 KiB (0%)

  513. Title : Traditional

  514. Language : Chinese

  515. Default : No

  516. Forced : No

复制代码

人生别牵拖[中文字幕].Dont.Blame.Karma.2022.SPANISH.1080p.NF.WEBRip.DDP5.1.x264 SMURF 3.33GB  海外电影  第3张 人生别牵拖[中文字幕].Dont.Blame.Karma.2022.SPANISH.1080p.NF.WEBRip.DDP5.1.x264 SMURF 3.33GB  海外电影  第4张 人生别牵拖[中文字幕].Dont.Blame.Karma.2022.SPANISH.1080p.NF.WEBRip.DDP5.1.x264 SMURF 3.33GB  海外电影  第5张



文件下载


除非特别注明,本文『人生别牵拖[中文字幕].Dont.Blame.Karma.2022.SPANISH.1080p.NF.WEBRip.DDP5.1.x264-SMURF 3.33GB』来源于互联网机器人自动抓取,非本站原创。 浮游电影网不对本文拥有版权,如有侵犯,请联系邮箱:fuyouu#yandex.com[#换成@]投诉。我们会在15个工作日内删除。 但烦请转载时请标明出处:“本文转载于『浮游电影网』,原文地址:https://www.fuyouu.com/22738.html

评论吧骚年!

发表你的见解   

昵称*

E-mail*(建议输入,以便收到博主回复的提示邮件)

验证码*

您可以使用eMule或eMule Mod(Windows)、aMule(Win、Linux、Mac)等软件下载eD2k链接。。
eMule收藏集(.emulecollection)文件是您选中的所有链接的列表文件。eMule可以直接下载它们。
按住SHIFT键选择可以选中多个选择框。
可用文件名和大小选择器来选择文件。
文件名选择器帮您根据文件名称或后缀来选择文件。不分大小写。
符号使用:
和:空格( )、+
不包含:-
或:|
转义:一对英文引号("");
匹配开头:^
匹配结尾:$
例如:
选中所有名称中包含有“eMule”或“0.49c”字眼,但不包含有“exe”字眼的:emule|0.49c -exe
选中所有名称的开头是“eMule”,结尾是“0.49c”的:^emule 0.49c$
选中所有名称中带有“eMule 0.49c”的(必须是“eMule 0.49c”,中间没有别的字符,不能是“eMule fake 0.49c”),需要转义:"emule 0.49c"
大小选择器帮您根据文件大小选择文件。