当前位置: 首页 >> 国产电影 >> 京城81号2[国语音轨/中文字幕].The.House.That.Never.Dies.II.2017.1080p.BluRay.x264-YAMG 11.17GB >> 正文

京城81号2[国语音轨/中文字幕].The.House.That.Never.Dies.II.2017.1080p.BluRay.x264-YAMG 11.17GB

2022年08月01日 22:42:10     电影发布:来源于网络     电影分类:国产电影     评论(0)    

京城81号2[国语音轨/中文字幕].The.House.That.Never.Dies.II.2017.1080p.BluRay.x264 YAMG 11.17GB  国产电影  第1张

◎译 名 京城81号2 / The House That Never Dies Ⅱ

◎片 名 京城81号Ⅱ

◎年 代 2017

◎产 地 中国大陆

◎类 别 剧情 / 悬疑 / 惊悚

◎语 言 汉语普通话

◎上映日期 2017-07-06(中国大陆)

◎IMDb链接 https://www.imdb.com/title/tt7627782/

◎豆瓣评分 3.7/10 (27908人评价)

◎豆瓣链接 https://movie.douban.com/subject/26662798/

◎片 长 98分钟

◎导 演 钱人豪 Jen-hao Chie (id:1315203)

◎编 剧 谭广源 Frankie Tam (id:1328638)

蔡骏 Jun Cai (id:1357898)

黄慧惠 Huihui Huang (id:1375170)

◎演 员 张智霖 Julian Cheung (id:1050979)

梅婷 Ting Mei (id:1047083)

钟欣潼 Gillian Chung (id:1005138)

耿乐 Le Geng (id:1274576)

邬君梅 Vivian Wu (id:1004773)

王水林 Shuilin Wang (id:1318538)

陈冲 Joan Chen (id:1044964)

高捷 Jack Kao (id:1276076)

林雪 Suet Lam (id:1274279)

连凯 Andrew Lin (id:1122837)

万国鹏 Guopeng Wan (id:1350013)

迈克·安吉洛 Mike Angelo (id:1332107)

冯岚 Lan Feng (id:1424004)

岳野 Ye Yue (id:1368213)

(id:1428097)

王羿鹍 Yikun Wang (id:1400037)

陈嘉上 Gordon Chan (id:1274245)

龚宇 Yu Gong (id:1406734)

郑海涛 Haitao Zheng (id:1457073)

黄翔 Xiang Huang (id:1457072)

何罡 Gang He (id:1430081)

林朝阳 Chaoyang Lin (id:1426070)

罗乐 Le Luo (id:1464484)

费玉清 Yu-Ching Fei (id:1339426)

范文怡 Wen-I. Fan (id:1457074)

李昭桦 Charles Lee (id:1352759)

◎简 介

《京城81号2》取材自东方四大鬼宅之首的京城81号地宫真实故事。

民国末期,正逢乱世,京城军阀哗变,少帅张骘生(张智霖 饰)被逼迎娶大军阀之女纪金翠(钟欣潼 饰),随即府内怪事丛生,人心惶惶。不久后京城涌现大批“尸婴案”,一切矛头指向少帅原配夫人钮梦鹤(梅婷 饰),随后 钮梦鹤离奇失踪,一夜之间京城81号惨遭灭门,留下一座破败鬼宅。

百年后,文物修复师宋腾在修复古宅过程中挖出大量婴儿尸骨与诡异符咒,一桩桩血淋淋的旧事似乎要将所有人拉进深渊,前世今生的恩怨情仇都一一浮现,而地宫冤魂鬼门索命的故事也就此拉开……

  1. Video

  2. ID : 1

  3. Format : AVC

  4. Format/Info : Advanced Video Codec

  5. Format profile : [email protected]

  6. Format settings : CABAC / 5 Ref Frames

  7. Format settings, CABAC : Yes

  8. Format settings, Reference frames : 5 frames

  9. Codec ID : V_MPEG4/ISO/AVC

  10. Duration : 1 h 37 min

  11. Bit rate : 9 971 kb/s

  12. Width : 1 920 pixels

  13. Height : 804 pixels

  14. Display aspect ratio : 2.40:1

  15. Frame rate mode : Constant

  16. Frame rate : 24.000 FPS

  17. Color space : YUV

  18. Chroma subsampling : 4:2:0

  19. Bit depth : 8 bits

  20. Scan type : Progressive

  21. Bits/(Pixel*Frame) : 0.269

  22. Stream size : 6.79 GiB (61%)

  23. Writing library : x264 core 164 r3065 ae03d92

  24. Encoding settings : cabac=1 / ref=5 / deblock=1:-3:-3 / analyse=0x3:0x133 / me=umh / subme=10 / psy=1 / psy_rd=1.00:0.00 / mixed_ref=1 / me_range=32 / chroma_me=1 / trellis=2 / 8x8dct=1 / cqm=0 / deadzone=21,11 / fast_pskip=0 / chroma_qp_offset=-2 / threads=24 / lookahead_threads=4 / sliced_threads=0 / nr=0 / decimate=0 / interlaced=0 / NTMzNTQ= / bluray_compat=0 / constrained_intra=0 / bframes=8 / b_pyramid=2 / b_adapt=2 / b_bias=0 / direct=3 / weightb=1 / open_gop=0 / weightp=2 / keyint=250 / keyint_min=24 / NTMzNTQ=uuDQuD2mJt9fsCf / scenecut=40 / intra_refresh=0 / rc=crf / mbtree=0 / crf=17.0 / qcomp=0.60 / qpmin=0 / qpmax=69 / qpstep=4 / NTMzNTQ=LmsMAP37EqsCpk / ip_ratio=1.40 / pb_ratio=1.30 / aq=3:0.60

  25. Language : English

  26. Default : Yes

  27. Forced : No

  28. Color range : Limited

  29. Matrix coefficients : BT.709


  30. Audio #1

  31. ID : 2

  32. Format : MLP FBA

  33. Format/Info : Meridian Lossless Packing FBA

  34. Commercial name : Dolby TrueHD

  35. Codec ID : A_TRUEHD

  36. Duration : 1 h 37 min

  37. Bit rate mode : Variable

  38. Bit rate : 2 443 kb/s

  39. Maximum bit rate : 4 356 kb/s

  40. Channel(s) : 6 channels

  41. Channel layout : L R C LFE Ls Rs

  42. Sampling rate : 96.0 kHz

  43. Frame rate : 1 200.000 FPS (80 SPF)

  44. Compression mode : Lossless

  45. Stream size : 1.66 GiB (15%)

  46. Title : Mandarin

  47. Language : Chinese

  48. Default : Yes

  49. Forced : No


  50. Audio #2

  51. ID : 3

  52. Format : AC-3

  53. Format/Info : Audio Coding 3

  54. Commercial name : Dolby Digital

  55. Codec ID : A_AC3

  56. Duration : 1 h 37 min

  57. Bit rate mode : Constant

  58. Bit rate : 640 kb/s

  59. Channel(s) : 6 channels

  60. Channel layout : L R C LFE Ls Rs

  61. Sampling rate : 48.0 kHz

  62. Frame rate : 31.250 FPS (1536 SPF)

  63. Compression mode : Lossy

  64. Stream size : 446 MiB (4%)

  65. Title : Mandarin

  66. Language : Chinese

  67. Service kind : Complete Main

  68. Default : No

  69. Forced : No


  70. Audio #3

  71. ID : 4

  72. Format : MLP FBA

  73. Format/Info : Meridian Lossless Packing FBA

  74. Commercial name : Dolby TrueHD

  75. Codec ID : A_TRUEHD

  76. Duration : 1 h 37 min

  77. Bit rate mode : Variable

  78. Bit rate : 2 544 kb/s

  79. Maximum bit rate : 4 422 kb/s

  80. Channel(s) : 6 channels

  81. Channel layout : L R C LFE Ls Rs

  82. Sampling rate : 96.0 kHz

  83. Frame rate : 1 200.000 FPS (80 SPF)

  84. Compression mode : Lossless

  85. Stream size : 1.73 GiB (16%)

  86. Title : Cantonese

  87. Language : Chinese

  88. Default : No

  89. Forced : No


  90. Audio #4

  91. ID : 5

  92. Format : AC-3

  93. Format/Info : Audio Coding 3

  94. Commercial name : Dolby Digital

  95. Codec ID : A_AC3

  96. Duration : 1 h 37 min

  97. Bit rate mode : Constant

  98. Bit rate : 640 kb/s

  99. Channel(s) : 6 channels

  100. Channel layout : L R C LFE Ls Rs

  101. Sampling rate : 48.0 kHz

  102. Frame rate : 31.250 FPS (1536 SPF)

  103. Compression mode : Lossy

  104. Stream size : 446 MiB (4%)

  105. Title : Cantonese

  106. Language : Chinese

  107. Service kind : Complete Main

  108. Default : No

  109. Forced : No


  110. Text #1

  111. ID : 6

  112. Format : UTF-8

  113. Codec ID : S_TEXT/UTF8

  114. Codec ID/Info : UTF-8 Plain Text

  115. Duration : 1 h 29 min

  116. Bit rate : 38 b/s

  117. Count of elements : 1134

  118. Stream size : 25.6 KiB (0%)

  119. Title : English Forced

  120. Language : English

  121. Default : Yes

  122. Forced : Yes


  123. Text #2

  124. ID : 7

  125. Format : PGS

  126. Muxing mode : zlib

  127. Codec ID : S_HDMV/PGS

  128. Codec ID/Info : Picture based subtitle format used on BDs/HD-DVDs

  129. Duration : 1 h 29 min

  130. Bit rate : 25.8 kb/s

  131. Count of elements : 1875

  132. Stream size : 16.6 MiB (0%)

  133. Title : English Forced PGS

  134. Language : English

  135. Default : No

  136. Forced : No


  137. Text #3

  138. ID : 8

  139. Format : PGS

  140. Muxing mode : zlib

  141. Codec ID : S_HDMV/PGS

  142. Codec ID/Info : Picture based subtitle format used on BDs/HD-DVDs

  143. Duration : 1 h 29 min

  144. Bit rate : 21.7 kb/s

  145. Count of elements : 1870

  146. Stream size : 13.9 MiB (0%)

  147. Title : Traditional Chinese PGS

  148. Language : Chinese

  149. Default : No

  150. Forced : No


  151. Text #4

  152. ID : 9

  153. Format : PGS

  154. Muxing mode : zlib

  155. Codec ID : S_HDMV/PGS

  156. Codec ID/Info : Picture based subtitle format used on BDs/HD-DVDs

  157. Duration : 1 h 29 min

  158. Bit rate : 20.2 kb/s

  159. Count of elements : 1870

  160. Stream size : 12.9 MiB (0%)

  161. Title : Simplified Chinese PGS

  162. Language : Chinese

  163. Default : No

  164. Forced : No


  165. Menu

  166. 00:00:00.000 : Chapter 01

  167. 00:04:16.625 : Chapter 02

  168. 00:07:31.583 : Chapter 03

  169. 00:11:31.167 : Chapter 04

  170. 00:15:59.750 : Chapter 05

  171. 00:21:14.750 : Chapter 06

  172. 00:24:52.708 : Chapter 07

  173. 00:31:29.125 : Chapter 08

  174. 00:36:25.625 : Chapter 09

  175. 00:41:11.542 : Chapter 10

  176. 00:44:08.250 : Chapter 11

  177. 00:48:30.333 : Chapter 12

  178. 00:52:45.542 : Chapter 13

  179. 00:57:20.542 : Chapter 14

  180. 01:03:36.625 : Chapter 15

  181. 01:09:24.083 : Chapter 16

  182. 01:12:48.417 : Chapter 17

  183. 01:16:41.042 : Chapter 18

  184. 01:21:49.625 : Chapter 19

  185. 01:30:28.500 : Chapter 20

复制代码

京城81号2[国语音轨/中文字幕].The.House.That.Never.Dies.II.2017.1080p.BluRay.x264 YAMG 11.17GB  国产电影  第2张



文件下载


除非特别注明,本文『京城81号2[国语音轨/中文字幕].The.House.That.Never.Dies.II.2017.1080p.BluRay.x264-YAMG 11.17GB』来源于互联网机器人自动抓取,非本站原创。 浮游电影网不对本文拥有版权,如有侵犯,请联系邮箱:fuyouu#yandex.com[#换成@]投诉。我们会在15个工作日内删除。 但烦请转载时请标明出处:“本文转载于『浮游电影网』,原文地址:https://www.fuyouu.com/22736.html

评论吧骚年!

发表你的见解   

昵称*

E-mail*(建议输入,以便收到博主回复的提示邮件)

验证码*

您可以使用eMule或eMule Mod(Windows)、aMule(Win、Linux、Mac)等软件下载eD2k链接。。
eMule收藏集(.emulecollection)文件是您选中的所有链接的列表文件。eMule可以直接下载它们。
按住SHIFT键选择可以选中多个选择框。
可用文件名和大小选择器来选择文件。
文件名选择器帮您根据文件名称或后缀来选择文件。不分大小写。
符号使用:
和:空格( )、+
不包含:-
或:|
转义:一对英文引号("");
匹配开头:^
匹配结尾:$
例如:
选中所有名称中包含有“eMule”或“0.49c”字眼,但不包含有“exe”字眼的:emule|0.49c -exe
选中所有名称的开头是“eMule”,结尾是“0.49c”的:^emule 0.49c$
选中所有名称中带有“eMule 0.49c”的(必须是“eMule 0.49c”,中间没有别的字符,不能是“eMule fake 0.49c”),需要转义:"emule 0.49c"
大小选择器帮您根据文件大小选择文件。