当前位置: 首页 >> 海外电影 >> 夺命隧道[中文字幕].The.Tunnel.2019.1080p.BluRay.x264-YAMG 9.54GB >> 正文

夺命隧道[中文字幕].The.Tunnel.2019.1080p.BluRay.x264-YAMG 9.54GB

2022年08月01日 22:41:18     电影发布:来源于网络     电影分类:海外电影     评论(0)    

夺命隧道[中文字幕].The.Tunnel.2019.1080p.BluRay.x264 YAMG 9.54GB  海外电影  第1张

夺命隧道[中文字幕].The.Tunnel.2019.1080p.BluRay.x264 YAMG 9.54GB  海外电影  第2张

◎译 名 夺命隧道 / 隧道浩劫:火海求生(港) / 隧道逃生 / The Tunnel

◎片 名 Tunnelen

◎年 代 2019

◎产 地 挪威

◎类 别 惊悚 / 灾难

◎语 言 挪威语

◎上映日期 2019-12-25(挪威)

◎IMDb链接 https://www.imdb.com/title/tt9049042/

◎豆瓣评分 5.9/10 (1103人评价)

◎豆瓣链接 https://movie.douban.com/subject/30363710/

◎片 长 105分钟

◎导 演 帕尔·奥耶 P?l ?ie (id:1303478)

◎编 剧 克耶尔斯蒂·海伦·拉斯穆森 Kjersti Helen Rasmussen (id:1445117)

◎演 员 托尔比约恩·哈尔 Thorbj?rn Harr (id:1101538)

伊尔瓦·伯杜德 Ylva Fuglerud (id:1445118)

丽莎·卡勒希德 Lisa Carlehed (id:1395499)

米克尔·布拉特·西尔塞特 Mikkel Bratt Silset (id:1445119)

彼得·福尔德 Peter F?rde (id:1445120)

丹尼尔·亚历山大·斯卡达尔 Daniel Alexander Skadal (id:1445121)

珀·埃吉尔·埃斯克 Per Egil Aske (id:1057419)

简·冈纳·勒伊斯 Jan Gunnar R?ise (id:1428506)

英维尔·霍尔特·拜格德内斯 Ingvild Holthe Bygdnes (id:1445122)

伊戈尔·内克默 Igor Necemer (id:1445123)

西莉耶·布雷维克 Silje Breivik (id:1443151)

埃尔达·斯卡 Eldar Skar (id:1360101)

凯瑞·豪根·西德尼斯 Kyrre Haugen Sydness (id:1354175)

亨利克·霍尔姆 Henrik Holm (id:1365543)

◎简 介

挪威是个拥有大量公路隧道的国家,但是由于隧道建设时缺少应急规划和救灾避难设施,隧道内的火灾往往是致命的。

斯坦好不容易在圣诞节前一天请了假,打算与女儿和女伴一起渡个假,但伊莉斯却因为满心都是去世的母亲,跟斯坦大吵一架,坐上了去奥斯陆的长途大巴。可就在伊莉斯坐的大巴驶入隧道后不久,大巴前面行驶的油罐车出事故导致隧道里的交通都堵塞住了,恶劣的天气让所有救援都不能及时赶到。而后油罐车还短路爆炸了,滚烫的浓烟瞬间填满了隧道。伊莉斯带着大家自救,到隧道里的检修小屋里避难。斯坦开车冲进了浓烟去寻找自己的女儿。隧道里遍布大量窒息的死者,伊莉斯他们避难的小屋里也逐渐被烟雾填满,终于,斯坦出现并救了伊莉斯和几位幸存者。返程路上,救援中心通知斯坦有两位小女孩就困在他们附近,斯坦让女儿和幸存者先走,自己独自去寻找两个姑娘。小姑娘找到了,但把所有呼吸装备都给了别人的斯坦却撑...

  1. Video

  2. ID : 1

  3. Format : AVC

  4. Format/Info : Advanced Video Codec

  5. Format profile : [email protected]

  6. Format settings : CABAC / 5 Ref Frames

  7. Format settings, CABAC : Yes

  8. Format settings, Reference frames : 5 frames

  9. Codec ID : V_MPEG4/ISO/AVC

  10. Duration : 1 h 43 min

  11. Bit rate : 7 394 kb/s

  12. Width : 1 920 pixels

  13. Height : 804 pixels

  14. Display aspect ratio : 2.40:1

  15. Frame rate mode : Constant

  16. Frame rate : 24.000 FPS

  17. Color space : YUV

  18. Chroma subsampling : 4:2:0

  19. Bit depth : 8 bits

  20. Scan type : Progressive

  21. Bits/(Pixel*Frame) : 0.200

  22. Stream size : 5.37 GiB (56%)

  23. Writing library : x264 core 164 r3065 ae03d92

  24. Encoding settings : cabac=1 / ref=5 / deblock=1:-3:-3 / analyse=0x3:0x133 / me=umh / subme=10 / psy=1 / psy_rd=1.00:0.00 / mixed_ref=1 / me_range=32 / chroma_me=1 / trellis=2 / 8x8dct=1 / cqm=0 / deadzone=21,11 / fast_pskip=0 / chroma_qp_offset=-2 / threads=24 / lookahead_threads=4 / sliced_threads=0 / nr=0 / decimate=0 / interlaced=0 / NTMzNTQ= / bluray_compat=0 / constrained_intra=0 / bframes=8 / b_pyramid=2 / b_adapt=2 / b_bias=0 / direct=3 / weightb=1 / open_gop=0 / weightp=2 / keyint=250 / keyint_min=24 / NTMzNTQ=uuDQuD2mJt9fsCf / scenecut=40 / intra_refresh=0 / rc=crf / mbtree=0 / crf=17.0 / qcomp=0.60 / qpmin=0 / qpmax=69 / qpstep=4 / NTMzNTQ=LmsMAP37EqsCpk / ip_ratio=1.40 / pb_ratio=1.30 / aq=3:0.60

  25. Language : English

  26. Default : Yes

  27. Forced : No

  28. Color range : Limited

  29. Matrix coefficients : BT.709


  30. Audio #1

  31. ID : 2

  32. Format : MLP FBA 16-ch

  33. Format/Info : Meridian Lossless Packing FBA with 16-channel presentation

  34. Commercial name : Dolby TrueHD with Dolby Atmos

  35. Codec ID : A_TRUEHD

  36. Duration : 1 h 43 min

  37. Bit rate mode : Variable

  38. Bit rate : 5 002 kb/s

  39. Maximum bit rate : 7 485 kb/s

  40. Channel(s) : 8 channels

  41. Channel layout : L R C LFE Ls Rs Lb Rb

  42. Sampling rate : 48.0 kHz

  43. Frame rate : 1 200.000 FPS (40 SPF)

  44. Compression mode : Lossless

  45. Stream size : 3.63 GiB (38%)

  46. Title : Norwegian

  47. Language : Norwegian

  48. Default : Yes

  49. Forced : No

  50. Number of dynamic objects : 11

  51. Bed channel count : 1 channel

  52. Bed channel configuration : LFE


  53. Audio #2

  54. ID : 3

  55. Format : AC-3

  56. Format/Info : Audio Coding 3

  57. Commercial name : Dolby Digital

  58. Format settings : Dolby Surround EX

  59. Codec ID : A_AC3

  60. Duration : 1 h 43 min

  61. Bit rate mode : Constant

  62. Bit rate : 640 kb/s

  63. Channel(s) : 6 channels

  64. Channel layout : L R C LFE Ls Rs

  65. Sampling rate : 48.0 kHz

  66. Frame rate : 31.250 FPS (1536 SPF)

  67. Compression mode : Lossy

  68. Stream size : 476 MiB (5%)

  69. Title : Norwegian

  70. Language : Norwegian

  71. Service kind : Complete Main

  72. Default : No

  73. Forced : No


  74. Text #1

  75. ID : 4

  76. Format : UTF-8

  77. Codec ID : S_TEXT/UTF8

  78. Codec ID/Info : UTF-8 Plain Text

  79. Duration : 1 h 37 min

  80. Bit rate : 46 b/s

  81. Count of elements : 1218

  82. Stream size : 33.1 KiB (0%)

  83. Title : English Forced

  84. Language : English

  85. Default : Yes

  86. Forced : Yes


  87. Text #2

  88. ID : 5

  89. Format : PGS

  90. Muxing mode : zlib

  91. Codec ID : S_HDMV/PGS

  92. Codec ID/Info : Picture based subtitle format used on BDs/HD-DVDs

  93. Duration : 1 h 38 min

  94. Bit rate : 29.7 kb/s

  95. Count of elements : 2025

  96. Stream size : 20.9 MiB (0%)

  97. Title : English Forced PGS

  98. Language : English

  99. Default : No

  100. Forced : No


  101. Text #3

  102. ID : 6

  103. Format : PGS

  104. Muxing mode : zlib

  105. Codec ID : S_HDMV/PGS

  106. Codec ID/Info : Picture based subtitle format used on BDs/HD-DVDs

  107. Duration : 1 h 38 min

  108. Bit rate : 25.5 kb/s

  109. Count of elements : 2027

  110. Stream size : 17.9 MiB (0%)

  111. Title : Traditional Chinese PGS

  112. Language : Chinese

  113. Default : No

  114. Forced : No


  115. Menu

  116. 00:00:00.000 : Chapter 01

  117. 00:06:00.833 : Chapter 02

  118. 00:12:57.500 : Chapter 03

  119. 00:15:24.083 : Chapter 04

  120. 00:22:20.917 : Chapter 05

  121. 00:28:57.750 : Chapter 06

  122. 00:34:08.958 : Chapter 07

  123. 00:38:43.208 : Chapter 08

  124. 00:46:45.333 : Chapter 09

  125. 00:52:41.458 : Chapter 10

  126. 00:55:15.750 : Chapter 11

  127. 01:00:31.958 : Chapter 12

  128. 01:05:34.292 : Chapter 13

  129. 01:10:25.208 : Chapter 14

  130. 01:19:42.333 : Chapter 15

  131. 01:27:37.125 : Chapter 16

  132. 01:34:21.542 : Chapter 17

  133. 01:39:11.000 : Chapter 18

复制代码

夺命隧道[中文字幕].The.Tunnel.2019.1080p.BluRay.x264 YAMG 9.54GB  海外电影  第3张



文件下载


除非特别注明,本文『夺命隧道[中文字幕].The.Tunnel.2019.1080p.BluRay.x264-YAMG 9.54GB』来源于互联网机器人自动抓取,非本站原创。 浮游电影网不对本文拥有版权,如有侵犯,请联系邮箱:fuyouu#yandex.com[#换成@]投诉。我们会在15个工作日内删除。 但烦请转载时请标明出处:“本文转载于『浮游电影网』,原文地址:https://www.fuyouu.com/22735.html

评论吧骚年!

发表你的见解   

昵称*

E-mail*(建议输入,以便收到博主回复的提示邮件)

验证码*

您可以使用eMule或eMule Mod(Windows)、aMule(Win、Linux、Mac)等软件下载eD2k链接。。
eMule收藏集(.emulecollection)文件是您选中的所有链接的列表文件。eMule可以直接下载它们。
按住SHIFT键选择可以选中多个选择框。
可用文件名和大小选择器来选择文件。
文件名选择器帮您根据文件名称或后缀来选择文件。不分大小写。
符号使用:
和:空格( )、+
不包含:-
或:|
转义:一对英文引号("");
匹配开头:^
匹配结尾:$
例如:
选中所有名称中包含有“eMule”或“0.49c”字眼,但不包含有“exe”字眼的:emule|0.49c -exe
选中所有名称的开头是“eMule”,结尾是“0.49c”的:^emule 0.49c$
选中所有名称中带有“eMule 0.49c”的(必须是“eMule 0.49c”,中间没有别的字符,不能是“eMule fake 0.49c”),需要转义:"emule 0.49c"
大小选择器帮您根据文件大小选择文件。