当前位置: 首页 >> 日韩电影 >> 我的邻居是EXO[中文字幕].EXO.Next.Door.2015.KOREAN.1080p.BluRay.x264.DTS-HDS 12.21GB >> 正文

我的邻居是EXO[中文字幕].EXO.Next.Door.2015.KOREAN.1080p.BluRay.x264.DTS-HDS 12.21GB

2022年08月01日 22:40:25     电影发布:来源于网络     电影分类:日韩电影     评论(0)    

我的邻居是EXO[中文字幕].EXO.Next.Door.2015.KOREAN.1080p.BluRay.x264.DTS HDS 12.21GB  日韩电影  第1张

我的邻居是EXO[中文字幕].EXO.Next.Door.2015.KOREAN.1080p.BluRay.x264.DTS HDS 12.21GB  日韩电影  第2张

◎译 名 我的邻居是EXO / 我邻居是EXO / 我的隔壁住着EXO / 我邻居家住着EXO / 邻家美男团 / EXO Next Door

◎片 名 ?? ??? ??? ??

◎年 代 2015

◎产 地 韩国

◎类 别 剧情 / 喜剧 / 爱情

◎语 言 韩语

◎上映日期 2015-04-09(韩国)

◎IMDb链接 https://www.imdb.com/title/tt4775200/

◎豆瓣评分 7.2/10 (18263人评价)

◎豆瓣链接 https://movie.douban.com/subject/26352421/

◎集 数 16

◎片 长 15分钟

◎导 演 李权 Kwon Lee (id:1402483)

◎编 剧 李权 Kwon Lee (id:1402483)

◎演 员 朴灿烈 Chan-Yeol Park (id:1338246)

都暻秀 Kyung-soo Doh (id:1336965)

边伯贤 Baek-Hyun Byun (id:1340172)

吴世勋 Se-Hun Oh (id:1337628)

金钟仁 Jong-In Kim (id:1339584)

张艺兴 Yixing Zhang (id:1338949)

金珉锡 XIUMIN (id:1340173)

黄子韬 Zitao Huang (id:1337445)

金钟大 Chen (id:1338249)

金俊勉 SUHO (id:1340174)

文佳煐 Ka-young Mun (id:1339316)

李有镇 Lee You-jin (id:1379578)

张宥相 Jang Yoo-sang (id:1376018)

◎简 介

EXO已完成短剧《我邻居家住着EXO》的拍摄。剧中,EXO将作为人气偶像组合“EXO”登场,将成员的真实面貌和假想性格相结合的魅力角色预计将满足粉丝们的幻想,令人充满期待。短剧女主角将由演员文佳煐担任。

  1. Video

  2. ID : 1

  3. Format : AVC

  4. Format/Info : Advanced Video Codec

  5. Format profile : [email protected]

  6. Format settings : CABAC / 4 Ref Frames

  7. Format settings, CABAC : Yes

  8. Format settings, Reference frames : 4 frames

  9. Codec ID : V_MPEG4/ISO/AVC

  10. Duration : 1 h 56 min

  11. Bit rate : 13.4 Mb/s

  12. Width : 1 920 pixels

  13. Height : 1 080 pixels

  14. Display aspect ratio : 16:9

  15. Frame rate mode : Constant

  16. Frame rate : 24.000 FPS

  17. Color space : YUV

  18. Chroma subsampling : 4:2:0

  19. Bit depth : 8 bits

  20. Scan type : Progressive

  21. Bits/(Pixel*Frame) : 0.270

  22. Stream size : 11.0 GiB (90%)

  23. Default : Yes

  24. Forced : No


  25. Audio

  26. ID : 2

  27. Format : DTS

  28. Format/Info : Digital Theater Systems

  29. Codec ID : A_DTS

  30. Duration : 1 h 56 min

  31. Bit rate mode : Constant

  32. Bit rate : 1 509 kb/s

  33. Channel(s) : 6 channels

  34. Channel layout : C L R Ls Rs LFE

  35. Sampling rate : 48.0 kHz

  36. Frame rate : 93.750 FPS (512 SPF)

  37. Bit depth : 24 bits

  38. Compression mode : Lossy

  39. Stream size : 1.23 GiB (10%)

  40. Title : Korean

  41. Language : Korean

  42. Default : Yes

  43. Forced : No


  44. Text #1

  45. ID : 3

  46. Format : UTF-8

  47. Codec ID : S_TEXT/UTF8

  48. Codec ID/Info : UTF-8 Plain Text

  49. Duration : 1 h 56 min

  50. Bit rate : 40 b/s

  51. Frame rate : 0.202 FPS

  52. Count of elements : 1414

  53. Stream size : 34.5 KiB (0%)

  54. Language : English

  55. Default : Yes

  56. Forced : No


  57. Text #2

  58. ID : 4

  59. Format : PGS

  60. Muxing mode : zlib

  61. Codec ID : S_HDMV/PGS

  62. Codec ID/Info : Picture based subtitle format used on BDs/HD-DVDs

  63. Duration : 1 h 56 min

  64. Bit rate : 32.2 kb/s

  65. Frame rate : 0.373 FPS

  66. Count of elements : 2602

  67. Stream size : 26.8 MiB (0%)

  68. Title : ENG

  69. Language : English

  70. Default : No

  71. Forced : No


  72. Text #3

  73. ID : 5

  74. Format : PGS

  75. Muxing mode : zlib

  76. Codec ID : S_HDMV/PGS

  77. Codec ID/Info : Picture based subtitle format used on BDs/HD-DVDs

  78. Duration : 1 h 56 min

  79. Bit rate : 23.3 kb/s

  80. Frame rate : 0.373 FPS

  81. Count of elements : 2602

  82. Stream size : 19.4 MiB (0%)

  83. Title : CHS

  84. Language : Chinese

  85. Default : No

  86. Forced : No


  87. Menu

  88. 00:00:00.000 : en:第 01 章

  89. 00:08:20.500 : en:第 02 章

  90. 00:19:26.625 : en:第 03 章

  91. 00:28:35.042 : en:第 04 章

  92. 00:41:21.583 : en:第 05 章

  93. 00:47:28.458 : en:第 06 章

  94. 00:59:11.292 : en:第 07 章

  95. 01:08:15.375 : en:第 08 章

  96. 01:18:55.083 : en:第 09 章

  97. 01:27:24.167 : en:第 10 章

  98. 01:37:56.000 : en:第 11 章

  99. 01:48:02.000 : en:第 12 章

复制代码

我的邻居是EXO[中文字幕].EXO.Next.Door.2015.KOREAN.1080p.BluRay.x264.DTS HDS 12.21GB  日韩电影  第3张 我的邻居是EXO[中文字幕].EXO.Next.Door.2015.KOREAN.1080p.BluRay.x264.DTS HDS 12.21GB  日韩电影  第4张 我的邻居是EXO[中文字幕].EXO.Next.Door.2015.KOREAN.1080p.BluRay.x264.DTS HDS 12.21GB  日韩电影  第5张



文件下载


除非特别注明,本文『我的邻居是EXO[中文字幕].EXO.Next.Door.2015.KOREAN.1080p.BluRay.x264.DTS-HDS 12.21GB』来源于互联网机器人自动抓取,非本站原创。 浮游电影网不对本文拥有版权,如有侵犯,请联系邮箱:fuyouu#yandex.com[#换成@]投诉。我们会在15个工作日内删除。 但烦请转载时请标明出处:“本文转载于『浮游电影网』,原文地址:https://www.fuyouu.com/22734.html

评论吧骚年!

发表你的见解   

昵称*

E-mail*(建议输入,以便收到博主回复的提示邮件)

验证码*

您可以使用eMule或eMule Mod(Windows)、aMule(Win、Linux、Mac)等软件下载eD2k链接。。
eMule收藏集(.emulecollection)文件是您选中的所有链接的列表文件。eMule可以直接下载它们。
按住SHIFT键选择可以选中多个选择框。
可用文件名和大小选择器来选择文件。
文件名选择器帮您根据文件名称或后缀来选择文件。不分大小写。
符号使用:
和:空格( )、+
不包含:-
或:|
转义:一对英文引号("");
匹配开头:^
匹配结尾:$
例如:
选中所有名称中包含有“eMule”或“0.49c”字眼,但不包含有“exe”字眼的:emule|0.49c -exe
选中所有名称的开头是“eMule”,结尾是“0.49c”的:^emule 0.49c$
选中所有名称中带有“eMule 0.49c”的(必须是“eMule 0.49c”,中间没有别的字符,不能是“eMule fake 0.49c”),需要转义:"emule 0.49c"
大小选择器帮您根据文件大小选择文件。