当前位置: 首页 >> 动画电影 >> 绿灯侠:绿灯长明[简繁英字幕].Green.Lantern.Beware.My.Power.2022.2160p.HDR.UHD.BluRay.DTS-HD.MA.5.1.x265-10bit-BAT >> 正文

绿灯侠:绿灯长明[简繁英字幕].Green.Lantern.Beware.My.Power.2022.2160p.HDR.UHD.BluRay.DTS-HD.MA.5.1.x265-10bit-BAT

2022年07月31日 17:49:55     电影发布:来源于网络     电影分类:动画电影     评论(0)    

绿灯侠:绿灯长明[简繁英字幕].Green.Lantern.Beware.My.Power.2022.2160p.HDR.UHD.BluRay.DTS-HD.MA.5.1.x265-10bit-BATHD 11.04GB

◎标 题 绿灯侠:绿灯长明

◎片 名 Green Lantern: Beware My Power

◎年 代 2022

◎产 地 美国

◎类 别 动画

◎语 言 英语

◎IMDb链接 https://www.imdb.com/title//

◎豆瓣链接 https://movie.douban.com/subject/35633924/

◎简 介

During today’s DC Fandome event a number of animated films were announced for the summer of 2022. Among them is Green Lantern: Beware My Power. No details were disclosed about the plot, characters, or casting.

  1. ##### MediaInfo ######

  2. General

  3. Unique ID : 258551974953624687528043219195978736238 (0xC2834C90233656939ACF0C047D6A626E)

  4. Complete name : Green.Lantern.Beware.My.Power.2022.2160p.HDR.UHD.BluRay.DTS-HD.MA.5.1.x265-10bit-BATHD.mkv

  5. Format : Matroska

  6. Format version : Version 4

  7. File size : 11.0 GiB

  8. Duration : 1 h 27 min

  9. Overall bit rate mode : Variable

  10. Overall bit rate : 18.1 Mb/s

  11. Movie name : Green Lantern Beware My Power 2022 2160p HDR UHD BluRay DTS-HD MA 5.1 x265-10bit-HDS

  12. Encoded date : UTC 2022-07-30 06:07:21

  13. Writing application : mkvmerge v69.0.0 ('Day And Age') 64-bit

  14. Writing library : libebml v1.4.2 + libmatroska v1.6.4

  15. Video

  16. ID : 1

  17. Format : HEVC

  18. Format/Info : High Efficiency Video Coding

  19. Format profile : Main [email protected]@High

  20. HDR format : SMPTE ST 2086, HDR10 compatible

  21. Codec ID : V_MPEGH/ISO/HEVC

  22. Duration : 1 h 27 min

  23. Bit rate : 16.0 Mb/s

  24. Width : 3 840 pixels

  25. Height : 2 160 pixels

  26. Display aspect ratio : 16:9

  27. Frame rate mode : Constant

  28. Frame rate : 23.976 (24000/1001/53354) FPS

  29. Color space : YUV

  30. Chroma subsampling : 4:2:0

  31. Bit depth : 10 bits

  32. Bits/(Pixel*Frame) : 0.080

  33. Stream size : 9.76 GiB (88%)

  34. Title : @HDSky

  35. Writing library : x265 - H.265/HEVC codec

  36. Default : Yes

  37. Forced : No

  38. Color range : Limited

  39. Color primaries : BT.2020

  40. Transfer characteristics : PQ

  41. Matrix coefficients : BT.2020 non-constant

  42. Mastering display color primaries : BT.2020

  43. Mastering display luminance : min: 0.0050 cd/m2, max: 4000 cd/m2

  44. Maximum Content Light Level : 355 cd/m2

  45. Maximum Frame-Average Light Level : 169 cd/m2

  46. Audio

  47. ID : 2

  48. Format : DTS XLL

  49. Format/Info : Digital Theater Systems

  50. Commercial name : DTS-HD Master Audio

  51. Codec ID : A_DTS

  52. Duration : 1 h 27 min

  53. Bit rate mode : Variable

  54. Bit rate : 2 049 kb/s

  55. Channel(s) : 6 channels

  56. Channel layout : C L R Ls Rs LFE

  57. Sampling rate : 48.0 kHz

  58. Frame rate : 93.750 FPS (512 SPF)

  59. Bit depth : 24 bits

  60. Compression mode : Lossless

  61. Stream size : 1.25 GiB (11%)

  62. Title : English

  63. Language : English

  64. Default : Yes

  65. Forced : No

  66. Text #1

  67. ID : 3

  68. Format : PGS

  69. Muxing mode : zlib

  70. Codec ID : S_HDMV/PGS

  71. Codec ID/Info : Picture based subtitle format used on BDs/HD-DVDs

  72. Duration : 1 h 24 min

  73. Bit rate : 30.4 kb/s

  74. Count of elements : 1914

  75. Stream size : 18.4 MiB (0%)

  76. Title : ENG

  77. Language : English

  78. Default : Yes

  79. Forced : No

  80. Text #2

  81. ID : 4

  82. Format : PGS

  83. Muxing mode : zlib

  84. Codec ID : S_HDMV/PGS

  85. Codec ID/Info : Picture based subtitle format used on BDs/HD-DVDs

  86. Duration : 1 h 23 min

  87. Bit rate : 19.6 kb/s

  88. Count of elements : 1294

  89. Stream size : 11.8 MiB (0%)

  90. Title : CHS

  91. Language : Chinese

  92. Default : Yes

  93. Forced : No

  94. Text #3

  95. ID : 5

  96. Format : PGS

  97. Muxing mode : zlib

  98. Codec ID : S_HDMV/PGS

  99. Codec ID/Info : Picture based subtitle format used on BDs/HD-DVDs

  100. Duration : 1 h 23 min

  101. Bit rate : 20.2 kb/s

  102. Count of elements : 1294

  103. Stream size : 12.1 MiB (0%)

  104. Title : CHT

  105. Language : Chinese

  106. Default : Yes

  107. Forced : No

  108. Menu

  109. 00:00:00.000 : en:第 01 章

  110. 00:05:03.303 : en:第 02 章

  111. 00:14:52.892 : en:第 03 章

  112. 00:23:46.133 : en:第 04 章

  113. 00:29:35.357 : en:第 05 章

  114. 00:35:36.801 : en:第 06 章

  115. 00:45:13.377 : en:第 07 章

  116. 00:55:12.809 : en:第 08 章

  117. 01:04:57.268 : en:第 09 章

  118. 01:11:03.718 : en:第 10 章

  119. 01:18:26.619 : en:第 11 章

  120. 01:24:52.587 : en:第 12 章


复制代码



文件下载


除非特别注明,本文『绿灯侠:绿灯长明[简繁英字幕].Green.Lantern.Beware.My.Power.2022.2160p.HDR.UHD.BluRay.DTS-HD.MA.5.1.x265-10bit-BAT』来源于互联网机器人自动抓取,非本站原创。 浮游电影网不对本文拥有版权,如有侵犯,请联系邮箱:fuyouu#yandex.com[#换成@]投诉。我们会在15个工作日内删除。 但烦请转载时请标明出处:“本文转载于『浮游电影网』,原文地址:https://www.fuyouu.com/22727.html

评论吧骚年!

发表你的见解   

昵称*

E-mail*(建议输入,以便收到博主回复的提示邮件)

验证码*

您可以使用eMule或eMule Mod(Windows)、aMule(Win、Linux、Mac)等软件下载eD2k链接。。
eMule收藏集(.emulecollection)文件是您选中的所有链接的列表文件。eMule可以直接下载它们。
按住SHIFT键选择可以选中多个选择框。
可用文件名和大小选择器来选择文件。
文件名选择器帮您根据文件名称或后缀来选择文件。不分大小写。
符号使用:
和:空格( )、+
不包含:-
或:|
转义:一对英文引号("");
匹配开头:^
匹配结尾:$
例如:
选中所有名称中包含有“eMule”或“0.49c”字眼,但不包含有“exe”字眼的:emule|0.49c -exe
选中所有名称的开头是“eMule”,结尾是“0.49c”的:^emule 0.49c$
选中所有名称中带有“eMule 0.49c”的(必须是“eMule 0.49c”,中间没有别的字符,不能是“eMule fake 0.49c”),需要转义:"emule 0.49c"
大小选择器帮您根据文件大小选择文件。