当前位置: 首页 >> 日韩电影 >> 犯罪都市2[简繁英特效字幕].The.Roundup.2022.V1.WEB-DL.1080p.H264.AAC5.1-BBQDDQ 6.16GB >> 正文

犯罪都市2[简繁英特效字幕].The.Roundup.2022.V1.WEB-DL.1080p.H264.AAC5.1-BBQDDQ 6.16GB

2022年07月29日 14:48:20     电影发布:来源于网络     电影分类:日韩电影     评论(0)    

◎标 题 犯罪都市2

◎译 名 犯罪都市:极拳执法(港) / The Roundup

◎片 名 범죄도시2

◎年 代 2022

◎产 地 韩国

◎类 别 动作 / 犯罪

◎语 言 韩语

◎上映日期 2022-05-18(韩国)

◎IMDb评分 7.3/10 (628人评价)

◎IMDb链接 https://www.imdb.com/title/tt15838850/

◎豆瓣评分 7.9/10 (846人评价)

◎豆瓣链接 https://movie.douban.com/subject/30267287/

◎片 长 106分钟

◎导 演 李相龙 Lee Sang-yong

◎编 剧 马东锡 Don Lee

李相龙 Lee Sang-yong

李英重 Yeong-joong Lee

◎演 员 马东锡 Don Lee

孙锡久 Sukku Son

崔奎华 Gwi-hwa Choi

许栋元 Heo Dong-won

朴智焕 Park Ji-hwan

河俊 Ha Jun

朴嘉熙 Kahi Park

尹炳熙 Yoon Byeong-hee

朴恩宇 Park Eun Woo

全镇吾 Jeon Jin-oh

金相中 Sang-joong Kim

音文硕 Moon-seok Eum

南文哲 Moon-cheol Nam

李柱元 Ju-won Lee

金灿亨 Kim Chan Hyung

◎简 介

《犯罪都市》制作公司表示该片的续集将于2019年中旬开机,仍由前集导演姜允成执导,马东锡主演。目前续集正在进行剧本创作,特别值得注意的是,制片方表示续集将拍成能让更多人观看的15禁警匪动作片,同时还强调希望将马东锡饰演的警察角色打造成韩国的代表警察形象。

  1. ##### MediaInfo ######

  2. General

  3. Unique ID : 159581805694486337059304346856527207890 (0x780E567B26BB72C1C7D15935FA7B9DD2)

  4. Complete name : 犯罪都市2.The.Roundup.2022.V1.WEB-DL.1080p.H264.AAC5.1-BBQDDQ.mkv

  5. Format : Matroska

  6. Format version : Version 4

  7. File size : 6.16 GiB

  8. Duration : 1 h 46 min

  9. Overall bit rate : 8 314 kb/s

  10. Encoded date : UTC 2022-07-27 14:01:38

  11. Writing application : mkvmerge v69.0.0 ('Day And Age') 64-bit

  12. Writing library : libebml v1.4.2 + libmatroska v1.6.4

  13. Video

  14. ID : 1

  15. Format : AVC

  16. Format/Info : Advanced Video Codec

  17. Format profile : [email protected]

  18. Format settings : CABAC / 2 Ref Frames

  19. Format settings, CABAC : Yes

  20. Format settings, Reference frames : 2 frames

  21. Format settings, GOP : M=1, N=30

  22. Codec ID : V_MPEG4/ISO/AVC

  23. Duration : 1 h 46 min

  24. Bit rate mode : Constant

  25. Bit rate : 8 000 kb/s

  26. Width : 1 920 pixels

  27. Height : 1 080 pixels

  28. Display aspect ratio : 16:9

  29. Frame rate mode : Constant

  30. Frame rate : 23.976 (24000/1001/53354) FPS

  31. Color space : YUV

  32. Chroma subsampling : 4:2:0

  33. Bit depth : 8 bits

  34. Scan type : Progressive

  35. Bits/(Pixel*Frame) : 0.161

  36. Stream size : 5.92 GiB (96%)

  37. Default : Yes

  38. Forced : No

  39. Audio

  40. ID : 2

  41. Format : AAC LC SBR

  42. Format/Info : Advanced Audio Codec Low Complexity with Spectral Band Replication

  43. Commercial name : HE-AAC

  44. Format settings : Implicit

  45. Codec ID : A_AAC-2

  46. Duration : 1 h 46 min

  47. Bit rate : 192 kb/s

  48. Channel(s) : 6 channels

  49. Channel layout : C L R Ls Rs LFE

  50. Sampling rate : 48.0 kHz

  51. Frame rate : 23.438 FPS (2048 SPF)

  52. Compression mode : Lossy

  53. Stream size : 146 MiB (2%)

  54. Language : Korean

  55. Default : Yes

  56. Forced : No

  57. Text #1

  58. ID : 3

  59. Format : PGS

  60. Muxing mode : zlib

  61. Codec ID : S_HDMV/PGS

  62. Codec ID/Info : Picture based subtitle format used on BDs/HD-DVDs

  63. Duration : 1 h 40 min

  64. Bit rate : 67.0 kb/s

  65. Count of elements : 4132

  66. Stream size : 48.3 MiB (1%)

  67. Title : 简英特效[email protected]

  68. Language : Chinese

  69. Default : Yes

  70. Forced : Yes

  71. Text #2

  72. ID : 4

  73. Format : PGS

  74. Muxing mode : zlib

  75. Codec ID : S_HDMV/PGS

  76. Codec ID/Info : Picture based subtitle format used on BDs/HD-DVDs

  77. Duration : 1 h 40 min

  78. Bit rate : 67.6 kb/s

  79. Count of elements : 4132

  80. Stream size : 48.7 MiB (1%)

  81. Title : 繁英特效[email protected]宽带测试,用毕立删

  82. Language : Chinese

  83. Default : No

  84. Forced : No

  85. Text #3

  86. ID : 5

  87. Format : PGS

  88. Muxing mode : zlib

  89. Codec ID : S_HDMV/PGS

  90. Codec ID/Info : Picture based subtitle format used on BDs/HD-DVDs

  91. Duration : 1 h 40 min

  92. Bit rate : 48.4 kb/s

  93. Count of elements : 4132

  94. Stream size : 34.9 MiB (1%)

  95. Title : 简中特效[email protected]严禁商业,后果自负

  96. Language : Chinese

  97. Default : No

  98. Forced : No

  99. Text #4

  100. ID : 6

  101. Format : PGS

  102. Muxing mode : zlib

  103. Codec ID : S_HDMV/PGS

  104. Codec ID/Info : Picture based subtitle format used on BDs/HD-DVDs

  105. Duration : 1 h 40 min

  106. Bit rate : 49.0 kb/s

  107. Count of elements : 4132

  108. Stream size : 35.3 MiB (1%)

  109. Title : 繁中特效[email protected]违规转载,举报有奖

  110. Language : Chinese

  111. Default : No

  112. Forced : No

犯罪都市2[简繁英特效字幕].The.Roundup.2022.V1.WEB DL.1080p.H264.AAC5.1 BBQDDQ 6.16GB  日韩电影  第2张

犯罪都市2[简繁英特效字幕].The.Roundup.2022.V1.WEB DL.1080p.H264.AAC5.1 BBQDDQ 6.16GB  日韩电影  第3张

犯罪都市2[简繁英特效字幕].The.Roundup.2022.V1.WEB DL.1080p.H264.AAC5.1 BBQDDQ 6.16GB  日韩电影  第4张

犯罪都市2[简繁英特效字幕].The.Roundup.2022.V1.WEB DL.1080p.H264.AAC5.1 BBQDDQ 6.16GB  日韩电影  第5张



文件下载


除非特别注明,本文『犯罪都市2[简繁英特效字幕].The.Roundup.2022.V1.WEB-DL.1080p.H264.AAC5.1-BBQDDQ 6.16GB』来源于互联网机器人自动抓取,非本站原创。 浮游电影网不对本文拥有版权,如有侵犯,请联系邮箱:fuyouu#yandex.com[#换成@]投诉。我们会在15个工作日内删除。 但烦请转载时请标明出处:“本文转载于『浮游电影网』,原文地址:https://www.fuyouu.com/22719.html

评论吧骚年!

发表你的见解   

昵称*

E-mail*(建议输入,以便收到博主回复的提示邮件)

验证码*

您可以使用eMule或eMule Mod(Windows)、aMule(Win、Linux、Mac)等软件下载eD2k链接。。
eMule收藏集(.emulecollection)文件是您选中的所有链接的列表文件。eMule可以直接下载它们。
按住SHIFT键选择可以选中多个选择框。
可用文件名和大小选择器来选择文件。
文件名选择器帮您根据文件名称或后缀来选择文件。不分大小写。
符号使用:
和:空格( )、+
不包含:-
或:|
转义:一对英文引号("");
匹配开头:^
匹配结尾:$
例如:
选中所有名称中包含有“eMule”或“0.49c”字眼,但不包含有“exe”字眼的:emule|0.49c -exe
选中所有名称的开头是“eMule”,结尾是“0.49c”的:^emule 0.49c$
选中所有名称中带有“eMule 0.49c”的(必须是“eMule 0.49c”,中间没有别的字符,不能是“eMule fake 0.49c”),需要转义:"emule 0.49c"
大小选择器帮您根据文件大小选择文件。