当前位置: 首页 >> 动画电影 >> 地狱男爵动画版[共2部合集][简繁英字幕].Hellboy.Animated.2006-2007.BluRay.2160p.TrueHD.Atmos.7.1.x265.10bit.HDR-ALT 11 >> 正文

地狱男爵动画版[共2部合集][简繁英字幕].Hellboy.Animated.2006-2007.BluRay.2160p.TrueHD.Atmos.7.1.x265.10bit.HDR-ALT 11

2022年07月29日 14:47:12     电影发布:来源于网络     电影分类:动画电影     评论(0)    

地狱男爵动画版[共2部合集][简繁英字幕].Hellboy.Animated.2006-2007.BluRay.2160p.TrueHD.Atmos.7.1.x265.10bit.HDR-ALT 11.07GB

◎标 题 地狱男爵动画版:风暴之剑

◎片 名 Hellboy Animated: Sword of Storms

◎年 代 2006

◎产 地 美国

◎类 别 剧情 / 动作 / 科幻 / 动画 / 战争 / 冒险

◎语 言 英语

◎上映日期 2007-02-06

◎IMDb评分 6.4/10 (4541人评价)

◎IMDb链接 https://www.imdb.com/title/tt0810895/

◎豆瓣评分 6.3/10 (680人评价)

◎豆瓣链接 https://movie.douban.com/subject/1980881/

◎片 长 77分钟

◎导 演 塔德·斯通斯 Tad Stones

◎编 剧 迈克·米格诺拉 Mike Mignola

塔德·斯通斯 Tad Stones

◎演 员 朗·普尔曼 Ron Perlman

菲尔·拉马 Phil LaMarr

塞尔玛·布莱尔 Selma Blair

道格·琼斯 Doug Jones

丽莎·德尔·门多 Liza Del Mundo

格文多林·叶 Gwendoline Yeo

基思·弗格森 Keith Ferguson

米歇尔·维特菲尔德 Mitchell Whitfield

詹姆士·谢 James Sie

佩里·吉普林 Peri Gilpin

Kim Mai Guest Kim Mai Guest

Michael Hagiwara Michael Hagiwara

迪·布拉雷·贝克尔 Dee Bradley Baker

克莱德·草津 Clyde Kusatsu

劳伦斯·戈登 Lawrence Gordon

Stephanie Elliott Stephanie Elliott

John W. Hyde John W. Hyde

Lloyd Levin Lloyd Levin

塔德·斯通斯 Tad Stones

Michael Wolf Michael Wolf

Mike Richardson Mike Richardson

迈克·米格诺拉 Mike Mignola

吉尔莫·德尔·托罗 Guillermo del Toro

Jeffrey Perlmutter Jeffrey Perlmutter

哈里·爱森斯坦 Harry Eisenstein

◎简 介

一个研究民间传说的教授打开了一本禁书, 被日本古代的雷电邪神占据了,邪神 一心想要回到并统治世界. 超能力研究防御局派地狱男孩和一组特工区调查这件案子, 进行过程中, 当地狱男孩拿起一把武士刀时,他进入了充满了日本传说的世界, 这个世界充满了各种各样的鬼魂和怪兽. 特工Kate Corrigan和Russell Thorne开始跟踪被控制的教授想要找到并将地狱男孩带回到人类世界.

  1. 合集文件列表:

  2. 1.Hellboy.Animated.Blood.and.Iron.2007.UHD.BluRay.2160p.TrueHD.Atmos.7.1.x265.10bit.HDR-ALT.mkv 5.00GB

  3. 2.Hellboy.Animated.Sword.of.Storms.2006.UHD.BluRay.2160p.TrueHD.Atmos.7.1.x265.10bit.HDR-ALT.mkv 6.07GB


复制代码

  1. ##### MediaInfo ######

  2. General

  3. Unique ID : 332848034863709064837543437777855981217 (0xFA6833215682602A7F60C70F099626A1)

  4. Complete name : Hellboy.Animated.Blood.and.Iron.2007.UHD.BluRay.2160p.TrueHD.Atmos.7.1.x265.10bit.HDR-ALT.mkv

  5. Format : Matroska

  6. Format version : Version 4

  7. File size : 5.00 GiB

  8. Duration : 1 h 16 min

  9. Overall bit rate mode : Variable

  10. Overall bit rate : 9 384 kb/s

  11. Encoded date : UTC 2022-03-03 07:45:07

  12. Writing application : mkvmerge v49.0.0 ('Sick Of Losing Soulmates') 64-bit

  13. Writing library : libebml v1.4.0 + libmatroska v1.6.1

  14. Video

  15. ID : 1

  16. Format : HEVC

  17. Format/Info : High Efficiency Video Coding

  18. Format profile : Main [email protected]@High

  19. HDR format : SMPTE ST 2086, HDR10 compatible

  20. Codec ID : V_MPEGH/ISO/HEVC

  21. Duration : 1 h 16 min

  22. Bit rate : 3 989 kb/s

  23. Width : 3 840 pixels

  24. Height : 2 160 pixels

  25. Display aspect ratio : 16:9

  26. Frame rate mode : Constant

  27. Frame rate : 23.976 (24000/1001/53354) FPS

  28. Color space : YUV

  29. Chroma subsampling : 4:2:0 (Type 2)

  30. Bit depth : 10 bits

  31. Bits/(Pixel*Frame) : 0.020

  32. Stream size : 2.12 GiB (43%)

  33. Title : HEVC, [email protected]@High, 24/1.001 fps @ 3988 kbps

  34. Writing library : x265 3.4+14-gd419c7152:[Windows][GCC 10.2.0][64 bit] 10bit

  35. Encoding settings : cpuid=533541111039 / frame-threads=4 / numa-pools=20 / wpp / pmode / pme / no-psnr / no-ssim / log-level=2 / input-csp=1 / input-res=3840x2160 / interlace=0 / total-frames=109681 / level-idc=51 / high-tier=1 / uhd-bd=0 / ref=4 / no-allow-non-conformance / repeat-headers / annexb / no-aud / hrd / info / hash=0 / no-temporal-layers / no-open-gop / min-keyint=24 / keyint=240 / gop-lookahead=0 / bframes=8 / b-adapt=2 / b-pyramid / bframe-bias=0 / rc-lookahead=25 / lookahead-slices=0 / NTMzNTQ=uuDQuD2mJt9fsCf / scenecut=40 / hist-scenecut=0 / radl=0 / no-splice / no-intra-refresh / ctu=64 / min-cu-size=8 / no-rect / no-amp / max-tu-size=32 / tu-inter-depth=3 / tu-intra-depth=3 / limit-tu=4 / rdoq-level=2 / dynamic-rd=0.00 / no-ssim-rd / signhide / no-tskip / nr-intra=0 / nr-inter=0 / no-constrained-intra / no-strong-intra-smoothing / max-merge=4 / limit-refs=1 / limit-modes / me=3 / subme=4 / merange=25 / temporal-mvp / no-frame-dup / no-hme / weightp / weightb / no-analyze-src-pics / deblock=-3:-3 / no-sao / no-sao-non-deblock / rd=6 / selective-sao=0 / no-early-skip / rskip / no-fast-intra / no-tskip-fast / no-cu-lossless / b-intra / no-splitrd-skip / rdpenalty=0 / psy-rd=2.00 / psy-rdoq=1.00 / no-rd-refine / no-lossless / cbqpoffs=0 / crqpoffs=0 / rc=crf / crf=17.0 / qcomp=0.65 / qpstep=4 / stats-write=0 / stats-read=0 / vbv-maxrate=160000 / vbv-bufsize=160000 / vbv-init=0.9 / crf-max=0.0 / crf-min=0.0 / ipratio=1.30 / pbratio=1.20 / aq-mode=3 / aq-strength=0.85 / cutree / zone-count=0 / no-strict-cbr / qg-size=32 / no-rc-grain / qpmax=69 / qpmin=0 / no-const-vbv / sar=1 / overscan=0 / videoformat=5 / range=0 / colorprim=9 / transfer=16 / colormatrix=9 / chromaloc=1 / chromaloc-top=2 / chromaloc-bottom=2 / display-window=0 / master-display=G(13250,34500)B(7500,3000)R(34000,16000)WP(15635,16450)L(40000000,50) / cll=1000,1000 / min-luma=0 / max-luma=1023 / log2-max-poc-lsb=8 / vui-timing-info / vui-hrd-info / slices=1 / no-opt-qp-pps / no-opt-ref-list-length-pps / no-multi-pass-opt-rps / scenecut-bias=0.05 / hist-threshold=0.03 / no-opt-cu-delta-qp / no-aq-motion / hdr10 / hdr10-opt / no-dhdr10-opt / no-idr-recovery-sei / analysis-reuse-level=0 / analysis-save-reuse-level=0 / analysis-load-reuse-level=0 / scale-factor=0 / refine-intra=0 / refine-inter=0 / refine-mv=1 / refine-ctu-distortion=0 / no-limit-sao / ctu-info=0 / no-lowpass-dct / refine-analysis-type=0 / copy-pic=1 / max-ausize-factor=1.0 / no-dynamic-refine / no-single-sei / no-hevc-aq / no-svt / no-field / qp-adaptation-range=1.00 / no-scenecut-aware-qpconformance-window-offsets / right=0 / bottom=0 / NTMzNTQ= / decoder-max-rate=0

  36. Language : English

  37. Default : Yes

  38. Forced : No

  39. Color range : Limited

  40. Color primaries : BT.2020

  41. Transfer characteristics : PQ

  42. Matrix coefficients : BT.2020 non-constant

  43. Mastering display color primaries : Display P3

  44. Mastering display luminance : min: 0.0050 cd/m2, max: 4000 cd/m2

  45. Maximum Content Light Level : 1000 cd/m2

  46. Maximum Frame-Average Light Level : 1000 cd/m2

  47. Audio #1

  48. ID : 2

  49. Format : MLP FBA 16-ch

  50. Format/Info : Meridian Lossless Packing FBA with 16-channel presentation

  51. Commercial name : Dolby TrueHD with Dolby Atmos

  52. Codec ID : A_TRUEHD

  53. Duration : 1 h 16 min

  54. Bit rate mode : Variable

  55. Bit rate : 4 434 kb/s

  56. Maximum bit rate : 7 074 kb/s

  57. Channel(s) : 8 channels

  58. Channel layout : L R C LFE Ls Rs Lb Rb

  59. Sampling rate : 48.0 kHz

  60. Frame rate : 1 200.000 FPS (40 SPF)

  61. Compression mode : Lossless

  62. Stream size : 2.36 GiB (47%)

  63. Title : English Dolby TrueHD 7.1 (Atmos) @ 5660 kbps

  64. Language : English

  65. Default : Yes

  66. Forced : No

  67. Number of dynamic objects : 11

  68. Bed channel count : 1 channel

  69. Bed channel configuration : LFE

  70. Audio #2

  71. ID : 3

  72. Format : AC-3

  73. Format/Info : Audio Coding 3

  74. Commercial name : Dolby Digital

  75. Codec ID : A_AC3

  76. Duration : 1 h 16 min

  77. Bit rate mode : Constant

  78. Bit rate : 640 kb/s

  79. Channel(s) : 6 channels

  80. Channel layout : L R C LFE Ls Rs

  81. Sampling rate : 48.0 kHz

  82. Frame rate : 31.250 FPS (1536 SPF)

  83. Compression mode : Lossy

  84. Stream size : 349 MiB (7%)

  85. Title : English AC3 5.1-EX @ 640 kbps

  86. Language : English

  87. Service kind : Complete Main

  88. Default : No

  89. Forced : No

  90. Audio #3

  91. ID : 4

  92. Format : AC-3

  93. Format/Info : Audio Coding 3

  94. Commercial name : Dolby Digital

  95. Codec ID : A_AC3

  96. Duration : 1 h 16 min

  97. Bit rate mode : Constant

  98. Bit rate : 192 kb/s

  99. Channel(s) : 2 channels

  100. Channel layout : L R

  101. Sampling rate : 48.0 kHz

  102. Frame rate : 31.250 FPS (1536 SPF)

  103. Compression mode : Lossy

  104. Stream size : 105 MiB (2%)

  105. Title : English Dolby Digital Audio 2.0 @ 192 kbps Commentary

  106. Language : English

  107. Service kind : Complete Main

  108. Default : No

  109. Forced : No

  110. Text #1

  111. ID : 5

  112. Format : PGS

  113. Codec ID : S_HDMV/PGS

  114. Codec ID/Info : Picture based subtitle format used on BDs/HD-DVDs

  115. Duration : 1 h 15 min

  116. Bit rate : 23.4 kb/s

  117. Count of elements : 1598

  118. Stream size : 12.7 MiB (0%)

  119. Title : Eng/SUP

  120. Language : English

  121. Default : No

  122. Forced : No

  123. Text #2

  124. ID : 6

  125. Format : PGS

  126. Codec ID : S_HDMV/PGS

  127. Codec ID/Info : Picture based subtitle format used on BDs/HD-DVDs

  128. Duration : 1 h 15 min

  129. Bit rate : 17.7 kb/s

  130. Count of elements : 1478

  131. Stream size : 9.62 MiB (0%)

  132. Title : Chs/SUP 简体

  133. Language : Chinese

  134. Default : Yes

  135. Forced : No

  136. Text #3

  137. ID : 7

  138. Format : PGS

  139. Codec ID : S_HDMV/PGS

  140. Codec ID/Info : Picture based subtitle format used on BDs/HD-DVDs

  141. Duration : 1 h 15 min

  142. Bit rate : 18.3 kb/s

  143. Count of elements : 1478

  144. Stream size : 9.92 MiB (0%)

  145. Title : Cht/SUP 繁体

  146. Language : Chinese

  147. Default : No

  148. Forced : No

  149. Menu

  150. 00:00:00.000 : en:第 01 章

  151. 00:12:09.604 : en:第 02 章

  152. 00:20:53.252 : en:第 03 章

  153. 00:27:08.794 : en:第 04 章

  154. 00:37:48.892 : en:第 05 章

  155. 00:50:19.099 : en:第 06 章

  156. 01:00:23.370 : en:第 07 章

  157. 01:10:02.281 : en:第 08 章

  158. 01:14:34.428 : en:第 09 章


复制代码



文件下载


除非特别注明,本文『地狱男爵动画版[共2部合集][简繁英字幕].Hellboy.Animated.2006-2007.BluRay.2160p.TrueHD.Atmos.7.1.x265.10bit.HDR-ALT 11』来源于互联网机器人自动抓取,非本站原创。 浮游电影网不对本文拥有版权,如有侵犯,请联系邮箱:fuyouu#yandex.com[#换成@]投诉。我们会在15个工作日内删除。 但烦请转载时请标明出处:“本文转载于『浮游电影网』,原文地址:https://www.fuyouu.com/22718.html

评论吧骚年!

发表你的见解   

昵称*

E-mail*(建议输入,以便收到博主回复的提示邮件)

验证码*

您可以使用eMule或eMule Mod(Windows)、aMule(Win、Linux、Mac)等软件下载eD2k链接。。
eMule收藏集(.emulecollection)文件是您选中的所有链接的列表文件。eMule可以直接下载它们。
按住SHIFT键选择可以选中多个选择框。
可用文件名和大小选择器来选择文件。
文件名选择器帮您根据文件名称或后缀来选择文件。不分大小写。
符号使用:
和:空格( )、+
不包含:-
或:|
转义:一对英文引号("");
匹配开头:^
匹配结尾:$
例如:
选中所有名称中包含有“eMule”或“0.49c”字眼,但不包含有“exe”字眼的:emule|0.49c -exe
选中所有名称的开头是“eMule”,结尾是“0.49c”的:^emule 0.49c$
选中所有名称中带有“eMule 0.49c”的(必须是“eMule 0.49c”,中间没有别的字符,不能是“eMule fake 0.49c”),需要转义:"emule 0.49c"
大小选择器帮您根据文件大小选择文件。