当前位置: 首页 >> 海外电影 >> 万能发型师[中文字幕].A.Cut.Above.2022.PORTUGUESE.PROPER.720p.NF.WEBRip.DDP5.1.x264-SMURF 2.72GB >> 正文

万能发型师[中文字幕].A.Cut.Above.2022.PORTUGUESE.PROPER.720p.NF.WEBRip.DDP5.1.x264-SMURF 2.72GB

2022年07月29日 14:46:05     电影发布:来源于网络     电影分类:海外电影     评论(0)    

万能发型师[中文字幕].A.Cut.Above.2022.PORTUGUESE.PROPER.720p.NF.WEBRip.DDP5.1.x264 SMURF 2.72GB  海外电影  第1张

万能发型师[中文字幕].A.Cut.Above.2022.PORTUGUESE.PROPER.720p.NF.WEBRip.DDP5.1.x264 SMURF 2.72GB  海外电影  第2张

◎标 题 万能发型师

◎片 名 A Cut Above

◎年 代 2022

◎产 地 巴西

◎类 别 喜剧

◎语 言 葡萄牙语

◎上映日期 2022-07-28(巴西)

◎IMDb评分 5.1/10 (19人评价)

◎IMDb链接 https://www.imdb.com/title/tt21265550/

◎豆瓣链接 https://movie.douban.com/subject/36025413/

◎片 长 91分钟

◎编 剧 西尔维欧·圭恩丹尼 Silvio Guindane

◎演 员 朱丽安娜·阿尔维斯 Juliana Alves

索朗热·克托 Solange Couto

◎简 介

母亲的美发沙龙濒临破产,尽职的儿子干劲十足地来帮忙,结果成了整个街区最酷的理发师。

  1. Video

  2. ID : 1

  3. Format : AVC

  4. Format/Info : Advanced Video Codec

  5. Format profile : [email protected]

  6. Format settings : CABAC / 3 Ref Frames

  7. Format settings, CABAC : Yes

  8. Format settings, Reference frames : 3 frames

  9. Codec ID : V_MPEG4/ISO/AVC

  10. Duration : 1 h 31 min

  11. Bit rate mode : Variable

  12. Bit rate : 2 975 kb/s

  13. Nominal bit rate : 3 160 kb/s

  14. Maximum bit rate : 4 740 kb/s

  15. Width : 1 280 pixels

  16. Height : 720 pixels

  17. Display aspect ratio : 16:9

  18. Frame rate mode : Constant

  19. Frame rate : 24.000 FPS

  20. Color space : YUV

  21. Chroma subsampling : 4:2:0

  22. Bit depth : 8 bits

  23. Scan type : Progressive

  24. Bits/(Pixel*Frame) : 0.135

  25. Stream size : 1.90 GiB (70%)

  26. Writing library : x264 core 148 r2727 7d026e8

  27. Encoding settings : cabac=1 / ref=3 / deblock=1:0:0 / analyse=0x1:0x111 / me=umh / subme=10 / psy=1 / psy_rd=1.00:0.00 / mixed_ref=1 / me_range=24 / chroma_me=1 / trellis=2 / 8x8dct=0 / cqm=0 / deadzone=21,11 / fast_pskip=1 / chroma_qp_offset=-2 / threads=8 / lookahead_threads=1 / sliced_threads=0 / nr=0 / decimate=1 / interlaced=0 / NTMzNTQ= / bluray_compat=0 / stitchable=1 / constrained_intra=0 / bframes=2 / b_pyramid=0 / b_adapt=2 / b_bias=0 / direct=3 / weightb=1 / open_gop=0 / weightp=2 / keyint=250 / keyint_min=24 / scenecut=0 / intra_refresh=0 / rc_lookahead=48 / rc=2pass / mbtree=1 / bitrate=3160 / ratetol=1.0 / qcomp=0.50 / qpmin=6 / qpmax=51 / qpstep=4 / cplxblur=20.0 / qblur=0.5 / vbv_maxrate=4740 / vbv_bufsize=6320 / nal_hrd=vbr / filler=0 / NTMzNTQ=LmsMAP37EqsCpk / ip_ratio=1.40 / aq=1:1.00

  28. Language : Portuguese

  29. Default : Yes

  30. Forced : No


  31. Audio #1

  32. ID : 2

  33. Format : E-AC-3

  34. Format/Info : Enhanced AC-3

  35. Commercial name : Dolby Digital Plus

  36. Codec ID : A_EAC3

  37. Duration : 1 h 31 min

  38. Bit rate mode : Constant

  39. Bit rate : 640 kb/s

  40. Channel(s) : 6 channels

  41. Channel layout : L R C LFE Ls Rs

  42. Sampling rate : 48.0 kHz

  43. Frame rate : 31.250 FPS (1536 SPF)

  44. Compression mode : Lossy

  45. Stream size : 418 MiB (15%)

  46. Title : Brazilian

  47. Language : Portuguese

  48. Service kind : Complete Main

  49. Default : Yes

  50. Forced : No


  51. Audio #2

  52. ID : 3

  53. Format : E-AC-3

  54. Format/Info : Enhanced AC-3

  55. Commercial name : Dolby Digital Plus

  56. Codec ID : A_EAC3

  57. Duration : 1 h 31 min

  58. Bit rate mode : Constant

  59. Bit rate : 640 kb/s

  60. Channel(s) : 6 channels

  61. Channel layout : L R C LFE Ls Rs

  62. Sampling rate : 48.0 kHz

  63. Frame rate : 31.250 FPS (1536 SPF)

  64. Compression mode : Lossy

  65. Stream size : 418 MiB (15%)

  66. Language : English

  67. Service kind : Complete Main

  68. Default : No

  69. Forced : No


  70. Text #1

  71. ID : 4

  72. Format : UTF-8

  73. Codec ID : S_TEXT/UTF8

  74. Codec ID/Info : UTF-8 Plain Text

  75. Duration : 15 min 7 s

  76. Bit rate : 0 b/s

  77. Frame rate : 0.002 FPS

  78. Count of elements : 2

  79. Stream size : 35.0 Bytes (0%)

  80. Title : Brazilian (Forced)

  81. Language : Portuguese

  82. Default : Yes

  83. Forced : Yes


  84. Text #2

  85. ID : 5

  86. Format : UTF-8

  87. Codec ID : S_TEXT/UTF8

  88. Codec ID/Info : UTF-8 Plain Text

  89. Duration : 1 h 24 min

  90. Bit rate : 91 b/s

  91. Frame rate : 0.293 FPS

  92. Count of elements : 1483

  93. Stream size : 56.6 KiB (0%)

  94. Title : Brazilian

  95. Language : Portuguese

  96. Default : No

  97. Forced : No


  98. Text #3

  99. ID : 6

  100. Format : UTF-8

  101. Codec ID : S_TEXT/UTF8

  102. Codec ID/Info : UTF-8 Plain Text

  103. Duration : 1 h 25 min

  104. Bit rate : 101 b/s

  105. Frame rate : 0.319 FPS

  106. Count of elements : 1630

  107. Stream size : 63.1 KiB (0%)

  108. Title : Brazilian (SDH)

  109. Language : Portuguese

  110. Default : No

  111. Forced : No


  112. Text #4

  113. ID : 7

  114. Format : UTF-8

  115. Codec ID : S_TEXT/UTF8

  116. Codec ID/Info : UTF-8 Plain Text

  117. Duration : 1 h 29 min

  118. Bit rate : 130 b/s

  119. Frame rate : 0.286 FPS

  120. Count of elements : 1545

  121. Stream size : 86.2 KiB (0%)

  122. Language : Arabic

  123. Default : No

  124. Forced : No


  125. Text #5

  126. ID : 8

  127. Format : UTF-8

  128. Codec ID : S_TEXT/UTF8

  129. Codec ID/Info : UTF-8 Plain Text

  130. Duration : 1 h 29 min

  131. Bit rate : 72 b/s

  132. Frame rate : 0.284 FPS

  133. Count of elements : 1533

  134. Stream size : 47.5 KiB (0%)

  135. Language : Czech

  136. Default : No

  137. Forced : No


  138. Text #6

  139. ID : 9

  140. Format : UTF-8

  141. Codec ID : S_TEXT/UTF8

  142. Codec ID/Info : UTF-8 Plain Text

  143. Duration : 1 h 29 min

  144. Bit rate : 73 b/s

  145. Frame rate : 0.278 FPS

  146. Count of elements : 1502

  147. Stream size : 48.1 KiB (0%)

  148. Language : Danish

  149. Default : No

  150. Forced : No


  151. Text #7

  152. ID : 10

  153. Format : UTF-8

  154. Codec ID : S_TEXT/UTF8

  155. Codec ID/Info : UTF-8 Plain Text

  156. Duration : 1 h 29 min

  157. Bit rate : 77 b/s

  158. Frame rate : 0.282 FPS

  159. Count of elements : 1523

  160. Stream size : 51.0 KiB (0%)

  161. Language : German

  162. Default : No

  163. Forced : No


  164. Text #8

  165. ID : 11

  166. Format : UTF-8

  167. Codec ID : S_TEXT/UTF8

  168. Codec ID/Info : UTF-8 Plain Text

  169. Duration : 1 h 29 min

  170. Bit rate : 119 b/s

  171. Frame rate : 0.270 FPS

  172. Count of elements : 1458

  173. Stream size : 78.4 KiB (0%)

  174. Language : Greek

  175. Default : No

  176. Forced : No


  177. Text #9

  178. ID : 12

  179. Format : UTF-8

  180. Codec ID : S_TEXT/UTF8

  181. Codec ID/Info : UTF-8 Plain Text

  182. Duration : 1 h 24 min

  183. Bit rate : 90 b/s

  184. Frame rate : 0.306 FPS

  185. Count of elements : 1560

  186. Stream size : 56.2 KiB (0%)

  187. Language : English

  188. Default : No

  189. Forced : No


  190. Text #10

  191. ID : 13

  192. Format : UTF-8

  193. Codec ID : S_TEXT/UTF8

  194. Codec ID/Info : UTF-8 Plain Text

  195. Duration : 1 h 29 min

  196. Bit rate : 75 b/s

  197. Frame rate : 0.289 FPS

  198. Count of elements : 1558

  199. Stream size : 49.5 KiB (0%)

  200. Language : English

  201. Default : No

  202. Forced : No


  203. Text #11

  204. ID : 14

  205. Format : UTF-8

  206. Codec ID : S_TEXT/UTF8

  207. Codec ID/Info : UTF-8 Plain Text

  208. Duration : 1 h 24 min

  209. Bit rate : 101 b/s

  210. Frame rate : 0.332 FPS

  211. Count of elements : 1691

  212. Stream size : 63.0 KiB (0%)

  213. Title : SDH

  214. Language : English

  215. Default : No

  216. Forced : No


  217. Text #12

  218. ID : 15

  219. Format : UTF-8

  220. Codec ID : S_TEXT/UTF8

  221. Codec ID/Info : UTF-8 Plain Text

  222. Duration : 1 h 29 min

  223. Bit rate : 70 b/s

  224. Frame rate : 0.284 FPS

  225. Count of elements : 1531

  226. Stream size : 46.5 KiB (0%)

  227. Language : Spanish

  228. Default : No

  229. Forced : No


  230. Text #13

  231. ID : 16

  232. Format : UTF-8

  233. Codec ID : S_TEXT/UTF8

  234. Codec ID/Info : UTF-8 Plain Text

  235. Duration : 1 h 29 min

  236. Bit rate : 71 b/s

  237. Frame rate : 0.284 FPS

  238. Count of elements : 1530

  239. Stream size : 47.4 KiB (0%)

  240. Title : European

  241. Language : Spanish

  242. Default : No

  243. Forced : No


  244. Text #14

  245. ID : 17

  246. Format : UTF-8

  247. Codec ID : S_TEXT/UTF8

  248. Codec ID/Info : UTF-8 Plain Text

  249. Duration : 1 h 29 min

  250. Bit rate : 66 b/s

  251. Frame rate : 0.280 FPS

  252. Count of elements : 1509

  253. Stream size : 44.1 KiB (0%)

  254. Language : Finnish

  255. Default : No

  256. Forced : No


  257. Text #15

  258. ID : 18

  259. Format : UTF-8

  260. Codec ID : S_TEXT/UTF8

  261. Codec ID/Info : UTF-8 Plain Text

  262. Duration : 1 h 29 min

  263. Bit rate : 74 b/s

  264. Frame rate : 0.274 FPS

  265. Count of elements : 1476

  266. Stream size : 49.4 KiB (0%)

  267. Language : French

  268. Default : No

  269. Forced : No


  270. Text #16

  271. ID : 19

  272. Format : UTF-8

  273. Codec ID : S_TEXT/UTF8

  274. Codec ID/Info : UTF-8 Plain Text

  275. Duration : 1 h 29 min

  276. Bit rate : 121 b/s

  277. Frame rate : 0.288 FPS

  278. Count of elements : 1554

  279. Stream size : 79.8 KiB (0%)

  280. Language : Hebrew

  281. Default : No

  282. Forced : No


  283. Text #17

  284. ID : 20

  285. Format : UTF-8

  286. Codec ID : S_TEXT/UTF8

  287. Codec ID/Info : UTF-8 Plain Text

  288. Duration : 1 h 29 min

  289. Bit rate : 70 b/s

  290. Frame rate : 0.275 FPS

  291. Count of elements : 1486

  292. Stream size : 46.1 KiB (0%)

  293. Language : Croatian

  294. Default : No

  295. Forced : No


  296. Text #18

  297. ID : 21

  298. Format : UTF-8

  299. Codec ID : S_TEXT/UTF8

  300. Codec ID/Info : UTF-8 Plain Text

  301. Duration : 1 h 29 min

  302. Bit rate : 75 b/s

  303. Frame rate : 0.281 FPS

  304. Count of elements : 1518

  305. Stream size : 49.8 KiB (0%)

  306. Language : Hungarian

  307. Default : No

  308. Forced : No


  309. Text #19

  310. ID : 22

  311. Format : UTF-8

  312. Codec ID : S_TEXT/UTF8

  313. Codec ID/Info : UTF-8 Plain Text

  314. Duration : 1 h 29 min

  315. Bit rate : 74 b/s

  316. Frame rate : 0.286 FPS

  317. Count of elements : 1541

  318. Stream size : 49.3 KiB (0%)

  319. Language : Indonesian

  320. Default : No

  321. Forced : No


  322. Text #20

  323. ID : 23

  324. Format : UTF-8

  325. Codec ID : S_TEXT/UTF8

  326. Codec ID/Info : UTF-8 Plain Text

  327. Duration : 1 h 29 min

  328. Bit rate : 73 b/s

  329. Frame rate : 0.284 FPS

  330. Count of elements : 1533

  331. Stream size : 48.3 KiB (0%)

  332. Language : Italian

  333. Default : No

  334. Forced : No


  335. Text #21

  336. ID : 24

  337. Format : UTF-8

  338. Codec ID : S_TEXT/UTF8

  339. Codec ID/Info : UTF-8 Plain Text

  340. Duration : 1 h 29 min

  341. Bit rate : 74 b/s

  342. Frame rate : 0.295 FPS

  343. Count of elements : 1592

  344. Stream size : 49.0 KiB (0%)

  345. Language : Japanese

  346. Default : No

  347. Forced : No


  348. Text #22

  349. ID : 25

  350. Format : UTF-8

  351. Codec ID : S_TEXT/UTF8

  352. Codec ID/Info : UTF-8 Plain Text

  353. Duration : 1 h 29 min

  354. Bit rate : 103 b/s

  355. Frame rate : 0.291 FPS

  356. Count of elements : 1569

  357. Stream size : 68.4 KiB (0%)

  358. Language : Korean

  359. Default : No

  360. Forced : No


  361. Text #23

  362. ID : 26

  363. Format : UTF-8

  364. Codec ID : S_TEXT/UTF8

  365. Codec ID/Info : UTF-8 Plain Text

  366. Duration : 1 h 29 min

  367. Bit rate : 74 b/s

  368. Frame rate : 0.275 FPS

  369. Count of elements : 1482

  370. Stream size : 49.1 KiB (0%)

  371. Language : Malay

  372. Default : No

  373. Forced : No


  374. Text #24

  375. ID : 27

  376. Format : UTF-8

  377. Codec ID : S_TEXT/UTF8

  378. Codec ID/Info : UTF-8 Plain Text

  379. Duration : 1 h 29 min

  380. Bit rate : 63 b/s

  381. Frame rate : 0.268 FPS

  382. Count of elements : 1447

  383. Stream size : 41.8 KiB (0%)

  384. Language : Norwegian Bokmal

  385. Default : No

  386. Forced : No


  387. Text #25

  388. ID : 28

  389. Format : UTF-8

  390. Codec ID : S_TEXT/UTF8

  391. Codec ID/Info : UTF-8 Plain Text

  392. Duration : 1 h 29 min

  393. Bit rate : 71 b/s

  394. Frame rate : 0.289 FPS

  395. Count of elements : 1560

  396. Stream size : 47.2 KiB (0%)

  397. Language : Dutch

  398. Default : No

  399. Forced : No


  400. Text #26

  401. ID : 29

  402. Format : UTF-8

  403. Codec ID : S_TEXT/UTF8

  404. Codec ID/Info : UTF-8 Plain Text

  405. Duration : 1 h 29 min

  406. Bit rate : 69 b/s

  407. Frame rate : 0.283 FPS

  408. Count of elements : 1528

  409. Stream size : 45.8 KiB (0%)

  410. Language : Polish

  411. Default : No

  412. Forced : No


  413. Text #27

  414. ID : 30

  415. Format : UTF-8

  416. Codec ID : S_TEXT/UTF8

  417. Codec ID/Info : UTF-8 Plain Text

  418. Duration : 1 h 29 min

  419. Bit rate : 83 b/s

  420. Frame rate : 0.286 FPS

  421. Count of elements : 1542

  422. Stream size : 55.0 KiB (0%)

  423. Language : Romanian

  424. Default : No

  425. Forced : No


  426. Text #28

  427. ID : 31

  428. Format : UTF-8

  429. Codec ID : S_TEXT/UTF8

  430. Codec ID/Info : UTF-8 Plain Text

  431. Duration : 1 h 29 min

  432. Bit rate : 117 b/s

  433. Frame rate : 0.283 FPS

  434. Count of elements : 1529

  435. Stream size : 77.1 KiB (0%)

  436. Language : Russian

  437. Default : No

  438. Forced : No


  439. Text #29

  440. ID : 32

  441. Format : UTF-8

  442. Codec ID : S_TEXT/UTF8

  443. Codec ID/Info : UTF-8 Plain Text

  444. Duration : 1 h 29 min

  445. Bit rate : 75 b/s

  446. Frame rate : 0.238 FPS

  447. Count of elements : 1285

  448. Stream size : 49.6 KiB (0%)

  449. Language : Swedish

  450. Default : No

  451. Forced : No


  452. Text #30

  453. ID : 33

  454. Format : UTF-8

  455. Codec ID : S_TEXT/UTF8

  456. Codec ID/Info : UTF-8 Plain Text

  457. Duration : 1 h 29 min

  458. Bit rate : 196 b/s

  459. Frame rate : 0.327 FPS

  460. Count of elements : 1766

  461. Stream size : 130 KiB (0%)

  462. Language : Thai

  463. Default : No

  464. Forced : No


  465. Text #31

  466. ID : 34

  467. Format : UTF-8

  468. Codec ID : S_TEXT/UTF8

  469. Codec ID/Info : UTF-8 Plain Text

  470. Duration : 1 h 29 min

  471. Bit rate : 78 b/s

  472. Frame rate : 0.268 FPS

  473. Count of elements : 1444

  474. Stream size : 51.5 KiB (0%)

  475. Language : Turkish

  476. Default : No

  477. Forced : No


  478. Text #32

  479. ID : 35

  480. Format : UTF-8

  481. Codec ID : S_TEXT/UTF8

  482. Codec ID/Info : UTF-8 Plain Text

  483. Duration : 1 h 29 min

  484. Bit rate : 123 b/s

  485. Frame rate : 0.288 FPS

  486. Count of elements : 1552

  487. Stream size : 81.4 KiB (0%)

  488. Language : Ukrainian

  489. Default : No

  490. Forced : No


  491. Text #33

  492. ID : 36

  493. Format : UTF-8

  494. Codec ID : S_TEXT/UTF8

  495. Codec ID/Info : UTF-8 Plain Text

  496. Duration : 1 h 29 min

  497. Bit rate : 106 b/s

  498. Frame rate : 0.266 FPS

  499. Count of elements : 1436

  500. Stream size : 70.2 KiB (0%)

  501. Language : Vietnamese

  502. Default : No

  503. Forced : No


  504. Text #34

  505. ID : 37

  506. Format : UTF-8

  507. Codec ID : S_TEXT/UTF8

  508. Codec ID/Info : UTF-8 Plain Text

  509. Duration : 1 h 29 min

  510. Bit rate : 81 b/s

  511. Frame rate : 0.288 FPS

  512. Count of elements : 1555

  513. Stream size : 53.5 KiB (0%)

  514. Title : Simplified

  515. Language : Chinese

  516. Default : No

  517. Forced : No


  518. Text #35

  519. ID : 38

  520. Format : UTF-8

  521. Codec ID : S_TEXT/UTF8

  522. Codec ID/Info : UTF-8 Plain Text

  523. Duration : 1 h 29 min

  524. Bit rate : 81 b/s

  525. Frame rate : 0.289 FPS

  526. Count of elements : 1558

  527. Stream size : 54.0 KiB (0%)

  528. Title : Traditional

  529. Language : Chinese

  530. Default : No

  531. Forced : No

复制代码

万能发型师[中文字幕].A.Cut.Above.2022.PORTUGUESE.PROPER.720p.NF.WEBRip.DDP5.1.x264 SMURF 2.72GB  海外电影  第3张 万能发型师[中文字幕].A.Cut.Above.2022.PORTUGUESE.PROPER.720p.NF.WEBRip.DDP5.1.x264 SMURF 2.72GB  海外电影  第4张 万能发型师[中文字幕].A.Cut.Above.2022.PORTUGUESE.PROPER.720p.NF.WEBRip.DDP5.1.x264 SMURF 2.72GB  海外电影  第5张



文件下载


除非特别注明,本文『万能发型师[中文字幕].A.Cut.Above.2022.PORTUGUESE.PROPER.720p.NF.WEBRip.DDP5.1.x264-SMURF 2.72GB』来源于互联网机器人自动抓取,非本站原创。 浮游电影网不对本文拥有版权,如有侵犯,请联系邮箱:fuyouu#yandex.com[#换成@]投诉。我们会在15个工作日内删除。 但烦请转载时请标明出处:“本文转载于『浮游电影网』,原文地址:https://www.fuyouu.com/22717.html

评论吧骚年!

发表你的见解   

昵称*

E-mail*(建议输入,以便收到博主回复的提示邮件)

验证码*

您可以使用eMule或eMule Mod(Windows)、aMule(Win、Linux、Mac)等软件下载eD2k链接。。
eMule收藏集(.emulecollection)文件是您选中的所有链接的列表文件。eMule可以直接下载它们。
按住SHIFT键选择可以选中多个选择框。
可用文件名和大小选择器来选择文件。
文件名选择器帮您根据文件名称或后缀来选择文件。不分大小写。
符号使用:
和:空格( )、+
不包含:-
或:|
转义:一对英文引号("");
匹配开头:^
匹配结尾:$
例如:
选中所有名称中包含有“eMule”或“0.49c”字眼,但不包含有“exe”字眼的:emule|0.49c -exe
选中所有名称的开头是“eMule”,结尾是“0.49c”的:^emule 0.49c$
选中所有名称中带有“eMule 0.49c”的(必须是“eMule 0.49c”,中间没有别的字符,不能是“eMule fake 0.49c”),需要转义:"emule 0.49c"
大小选择器帮您根据文件大小选择文件。