当前位置: 首页 >> 国产电影 >> 恶到必除[国语配音/中文字幕].Punish.Evil.2022.2160p.WEB-DL.H265.AAC-MOMOWEB 1.46GB >> 正文

恶到必除[国语配音/中文字幕].Punish.Evil.2022.2160p.WEB-DL.H265.AAC-MOMOWEB 1.46GB

2022年07月29日 01:00:07     电影发布:来源于网络     电影分类:国产电影     评论(0)    

◎标 题 恶到必除

◎译 名 Punish Evil

◎年 代 2022

◎产 地 中国大陆

◎类 别 剧情 / 犯罪

◎语 言 汉语普通话

◎上映日期 2022-07-28(中国大陆网络)

◎IMDb链接 https://www.imdb.com/title//

◎豆瓣链接 https://movie.douban.com/subject/36017416/

◎导 演 姜晓通 Xiaotong Jiang

◎编 剧 史倩 Qian Shi

◎演 员 赵达 Da Zhao

邹兆龙 Collin Chou

肖涵 Han Xiao

彭敬慈 Samuel Pang

王炳翔 Bingxiang Wang

辛悦 Yue Xin

◎简 介

《恶到必除》是一部讲述上世纪九十年代我国公安机关,众志成城、强强联合打击违法犯罪活动、伸张社会正义的警匪动作影片。 上世纪90年代的南方一座名为滨海的小城市连续发生多起令人发指的凶残劫案,为人刚正不阿的北方公安徐正阳来到来到滨海支援本地刑侦队长宋海侦破案件,面对具备高超反侦察能力以及凶残属性的嚣张的庄志强劫匪集团,两人各自发挥所长,经历一番斗智斗勇的对决后,最终一举歼灭以庄志强为首的悍匪集团。

  1. ##### MediaInfo ######

  2. General

  3. Unique ID : 4395872038648237477630331248935152688 (0x34E9D3987C1C68F2A63CCFE5F0FAC30)

  4. Complete name : Punish.Evil.2022.2160p.WEB-DL.H265.AAC-MOMOWEB.mkv

  5. Format : Matroska

  6. Format version : Version 4

  7. File size : 1.46 GiB

  8. Duration : 1 h 25 min

  9. Overall bit rate : 2 461 kb/s

  10. Encoded date : UTC 2022-07-28 07:40:13

  11. Writing application : mkvmerge v58.0.0 ('Supper's Ready') 64-bit

  12. Writing library : libebml v1.4.2 + libmatroska v1.6.4

  13. Video

  14. ID : 1

  15. Format : HEVC

  16. Format/Info : High Efficiency Video Coding

  17. Format profile : [email protected]@Main

  18. Codec ID : V_MPEGH/ISO/HEVC

  19. Duration : 1 h 25 min

  20. Bit rate : 2 274 kb/s

  21. Width : 3 840 pixels

  22. Height : 1 632 pixels

  23. Display aspect ratio : 2.35:1

  24. Frame rate mode : Variable

  25. Frame rate : 23.921 FPS

  26. Original frame rate : 24.000 FPS

  27. Color space : YUV

  28. Chroma subsampling : 4:2:0

  29. Bit depth : 8 bits

  30. Bits/(Pixel*Frame) : 0.015

  31. Stream size : 1.35 GiB (92%)

  32. Language : Chinese

  33. Default : Yes

  34. Forced : No

  35. Audio

  36. ID : 2

  37. Format : AAC LC

  38. Format/Info : Advanced Audio Codec Low Complexity

  39. Codec ID : A_AAC-2

  40. Duration : 1 h 25 min

  41. Bit rate : 185 kb/s

  42. Channel(s) : 2 channels

  43. Channel layout : L R

  44. Sampling rate : 44.1 kHz

  45. Frame rate : 43.066 FPS (1024 SPF)

  46. Compression mode : Lossy

  47. Stream size : 113 MiB (8%)

  48. Language : Chinese

  49. Default : Yes

  50. Forced : No


复制代码



文件下载


除非特别注明,本文『恶到必除[国语配音/中文字幕].Punish.Evil.2022.2160p.WEB-DL.H265.AAC-MOMOWEB 1.46GB』来源于互联网机器人自动抓取,非本站原创。 浮游电影网不对本文拥有版权,如有侵犯,请联系邮箱:fuyouu#yandex.com[#换成@]投诉。我们会在15个工作日内删除。 但烦请转载时请标明出处:“本文转载于『浮游电影网』,原文地址:https://www.fuyouu.com/22714.html

评论吧骚年!

发表你的见解   

昵称*

E-mail*(建议输入,以便收到博主回复的提示邮件)

验证码*

您可以使用eMule或eMule Mod(Windows)、aMule(Win、Linux、Mac)等软件下载eD2k链接。。
eMule收藏集(.emulecollection)文件是您选中的所有链接的列表文件。eMule可以直接下载它们。
按住SHIFT键选择可以选中多个选择框。
可用文件名和大小选择器来选择文件。
文件名选择器帮您根据文件名称或后缀来选择文件。不分大小写。
符号使用:
和:空格( )、+
不包含:-
或:|
转义:一对英文引号("");
匹配开头:^
匹配结尾:$
例如:
选中所有名称中包含有“eMule”或“0.49c”字眼,但不包含有“exe”字眼的:emule|0.49c -exe
选中所有名称的开头是“eMule”,结尾是“0.49c”的:^emule 0.49c$
选中所有名称中带有“eMule 0.49c”的(必须是“eMule 0.49c”,中间没有别的字符,不能是“eMule fake 0.49c”),需要转义:"emule 0.49c"
大小选择器帮您根据文件大小选择文件。